Index
# A B C D E F G H I J K L M N O P Q R S T U V W Y Z
Tags
Language
Tags

Featured TV Shows


High Maintenance S02E07

Posted By: Tavaz
1080p (FullHD) / WEB-DL IMDb
High Maintenance S02E07

High Maintenance S02E07
WEB-DL | MKV | 1920x1080 | English | H264 @ 9141 kbps | E-AC-3 @ 640 kbps | 21 min 54 s | 1.53 GiB
Subtitles: English
Genre: Comedy

Jump into the daily routines of a diverse group of New Yorkers and how they light things up. “The Guy” is a nameless pot deliveryman whose client base includes an eccentric group of characters with neuroses as diverse as the city.

f48c8698808844c2a35d552b992d71fe.mkv (1.5 GB)



General
Unique ID : 64238992703120059323401213375251450076 (0x3053FADEF2C453646FD7805F790B88DC)
Complete name : ./f48c8698808844c2a35d552b992d71fe.mkv
Format : Matroska
Format version : Version 4 / Version 2
File size : 1.53 GiB
Duration : 21 min 54 s
Overall bit rate mode : Variable
Overall bit rate : 9 980 kb/s
Writing application : mkvmerge v21.0.0 ('Tardigrades Will Inherit The Earth') 64-bit
Writing library : libebml v1.3.5 + libmatroska v1.4.8

Video
ID : 1
Format : AVC
Format/Info : Advanced Video Codec
Format profile : High@L4
Format settings : CABAC / 4 Ref Frames
Format settings, CABAC : Yes
Format settings, RefFrames : 4 frames
Codec ID : V_MPEG4/ISO/AVC
Duration : 21 min 54 s
Bit rate mode : Variable
Bit rate : 9 142 kb/s
Maximum bit rate : 15.0 Mb/s
Width : 1 920 pixels
Height : 1 080 pixels
Display aspect ratio : 16:9
Frame rate mode : Constant
Frame rate : 23.976 (24000/1001) FPS
Color space : YUV
Chroma subsampling : 4:2:0
Bit depth : 8 bits
Scan type : Progressive
Bits/(Pixel*Frame) : 0.184
Stream size : 1.40 GiB (92%)
Default : Yes
Forced : No
Color range : Limited
Color primaries : BT.709
Transfer characteristics : BT.709
Matrix coefficients : BT.709
Statistics Tags Issue : mkvmerge v21.0.0 ('Tardigrades Will Inherit The Earth') 64-bit 2018-03-03 15:35:51 / mkvmerge v21.0.0 ('Tardigrades Will Inherit The Earth') 64-bit
FromStats_BitRate : 9338086
FromStats_Duration : 00:21:54.939000000
FromStats_FrameCount : 31527
FromStats_StreamSize : 1534876690

Audio
ID : 2
Format : E-AC-3
Format/Info : Enhanced Audio Coding 3
Format settings, Endianness : Big
Codec ID : A_EAC3
Duration : 21 min 54 s
Bit rate mode : Constant
Bit rate : 640 kb/s
Channel(s) : 6 channels
Channel positions : Front: L C R, Side: L R, LFE
Sampling rate : 48.0 kHz
Frame rate : 187.500 FPS (256 SPF)
Compression mode : Lossy
Delay relative to video : 7 ms
Stream size : 100 MiB (6%)
Language : English
Service kind : Complete Main
Default : Yes
Forced : No
Statistics Tags Issue : mkvmerge v21.0.0 ('Tardigrades Will Inherit The Earth') 64-bit 2018-03-03 15:35:51 / mkvmerge v21.0.0 ('Tardigrades Will Inherit The Earth') 64-bit
FromStats_BitRate : 640000
FromStats_Duration : 00:21:54.880000000
FromStats_FrameCount : 41090
FromStats_StreamSize : 105190400

Text #1
ID : 3
Format : UTF-8
Codec ID : S_TEXT/UTF8
Codec ID/Info : UTF-8 Plain Text
Language : English
Default : No
Forced : No
Statistics Tags Issue : mkvmerge v21.0.0 ('Tardigrades Will Inherit The Earth') 64-bit 2018-03-03 15:35:51 / mkvmerge v21.0.0 ('Tardigrades Will Inherit The Earth') 64-bit
FromStats_BitRate : 94
FromStats_Duration : 00:21:41.666000000
FromStats_FrameCount : 427
FromStats_StreamSize : 15446

Text #2
ID : 4
Format : UTF-8
Codec ID : S_TEXT/UTF8
Codec ID/Info : UTF-8 Plain Text
Title : SDH
Language : English
Default : No
Forced : No
Statistics Tags Issue : mkvmerge v21.0.0 ('Tardigrades Will Inherit The Earth') 64-bit 2018-03-03 15:35:51 / mkvmerge v21.0.0 ('Tardigrades Will Inherit The Earth') 64-bit
FromStats_BitRate : 101
FromStats_Duration : 00:21:41.666000000
FromStats_FrameCount : 455
FromStats_StreamSize : 16589





High Maintenance S02E07


High Maintenance S02E07


High Maintenance S02E07


High Maintenance S02E07


High Maintenance S02E07

All episodes