Index
# A B C D E F G H I J K L M N O P Q R S T U V W Y Z
Tags
Language
Tags

Featured TV Shows


High Maintenance S02E07

Posted By: Tavaz
720p (HD) / WEB-DL IMDb
High Maintenance S02E07

High Maintenance S02E07
WEB-DL | MKV | 1280x720 | English | H264 @ 2568 kbps | E-AC-3 @ 640 kbps | 21 min 54 s | 513 MiB
Subtitles: English
Genre: Comedy

Jump into the daily routines of a diverse group of New Yorkers and how they light things up. “The Guy” is a nameless pot deliveryman whose client base includes an eccentric group of characters with neuroses as diverse as the city.

d40a6e6cbaee4e519e59a4949deae45d.mkv (513.2 MB)



General
Unique ID : 208361514409222092346113289290156869207 (0x9CC0F7CDEBD8D527B616C3BD5D500657)
Complete name : ./d40a6e6cbaee4e519e59a4949deae45d.mkv
Format : Matroska
Format version : Version 4 / Version 2
File size : 513 MiB
Duration : 21 min 54 s
Overall bit rate mode : Variable
Overall bit rate : 3 274 kb/s
Writing application : mkvmerge v21.0.0 ('Tardigrades Will Inherit The Earth') 64-bit
Writing library : libebml v1.3.5 + libmatroska v1.4.8

Video
ID : 1
Format : AVC
Format/Info : Advanced Video Codec
Format profile : High@L3.1
Format settings : CABAC / 5 Ref Frames
Format settings, CABAC : Yes
Format settings, RefFrames : 5 frames
Codec ID : V_MPEG4/ISO/AVC
Duration : 21 min 54 s
Bit rate mode : Variable
Bit rate : 2 569 kb/s
Maximum bit rate : 4 500 kb/s
Width : 1 280 pixels
Height : 720 pixels
Display aspect ratio : 16:9
Frame rate mode : Constant
Frame rate : 23.976 (24000/1001) FPS
Color space : YUV
Chroma subsampling : 4:2:0
Bit depth : 8 bits
Scan type : Progressive
Bits/(Pixel*Frame) : 0.116
Stream size : 403 MiB (78%)
Default : Yes
Forced : No
Color range : Limited
Color primaries : BT.709
Transfer characteristics : BT.709
Matrix coefficients : BT.709
Statistics Tags Issue : mkvmerge v21.0.0 ('Tardigrades Will Inherit The Earth') 64-bit 2018-03-03 15:28:43 / mkvmerge v21.0.0 ('Tardigrades Will Inherit The Earth') 64-bit
FromStats_BitRate : 2631807
FromStats_Duration : 00:21:54.939000000
FromStats_FrameCount : 31527
FromStats_StreamSize : 432583279

Audio
ID : 2
Format : E-AC-3
Format/Info : Enhanced Audio Coding 3
Format settings, Endianness : Big
Codec ID : A_EAC3
Duration : 21 min 54 s
Bit rate mode : Constant
Bit rate : 640 kb/s
Channel(s) : 6 channels
Channel positions : Front: L C R, Side: L R, LFE
Sampling rate : 48.0 kHz
Frame rate : 187.500 FPS (256 SPF)
Compression mode : Lossy
Delay relative to video : 7 ms
Stream size : 100 MiB (20%)
Language : English
Service kind : Complete Main
Default : Yes
Forced : No
Statistics Tags Issue : mkvmerge v21.0.0 ('Tardigrades Will Inherit The Earth') 64-bit 2018-03-03 15:28:43 / mkvmerge v21.0.0 ('Tardigrades Will Inherit The Earth') 64-bit
FromStats_BitRate : 640000
FromStats_Duration : 00:21:54.880000000
FromStats_FrameCount : 41090
FromStats_StreamSize : 105190400

Text #1
ID : 3
Format : UTF-8
Codec ID : S_TEXT/UTF8
Codec ID/Info : UTF-8 Plain Text
Language : English
Default : No
Forced : No
Statistics Tags Issue : mkvmerge v21.0.0 ('Tardigrades Will Inherit The Earth') 64-bit 2018-03-03 15:28:43 / mkvmerge v21.0.0 ('Tardigrades Will Inherit The Earth') 64-bit
FromStats_BitRate : 94
FromStats_Duration : 00:21:41.666000000
FromStats_FrameCount : 427
FromStats_StreamSize : 15446

Text #2
ID : 4
Format : UTF-8
Codec ID : S_TEXT/UTF8
Codec ID/Info : UTF-8 Plain Text
Title : SDH
Language : English
Default : No
Forced : No
Statistics Tags Issue : mkvmerge v21.0.0 ('Tardigrades Will Inherit The Earth') 64-bit 2018-03-03 15:28:43 / mkvmerge v21.0.0 ('Tardigrades Will Inherit The Earth') 64-bit
FromStats_BitRate : 101
FromStats_Duration : 00:21:41.666000000
FromStats_FrameCount : 455
FromStats_StreamSize : 16589





High Maintenance S02E07


High Maintenance S02E07


High Maintenance S02E07


High Maintenance S02E07


High Maintenance S02E07

All episodes