Index
# A B C D E F G H I J K L M N O P Q R S T U V W Y Z
Tags
Language
Tags

Featured TV Shows


High Maintenance S02E08

Posted By: Tavaz
SD / WEB-DL IMDb
High Maintenance S02E08

High Maintenance S02E08
WEB-DL | MKV | 720x480 | English | H264 @ 554 kbps | E-AC-3 @ 640 kbps | 25 min 13 s | 220 MiB
Subtitles: English
Genre: Comedy

Jump into the daily routines of a diverse group of New Yorkers and how they light things up. “The Guy” is a nameless pot deliveryman whose client base includes an eccentric group of characters with neuroses as diverse as the city.

9d5e749775c042d08ff966e1bbba018a.mkv (219.8 MB)



General
Unique ID : 130229773401268932376091829910075516132 (0x61F9578EE9AFA03738163D9E9F2EA4E4)
Complete name : ./9d5e749775c042d08ff966e1bbba018a.mkv
Format : Matroska
Format version : Version 4 / Version 2
File size : 220 MiB
Duration : 25 min 13 s
Overall bit rate mode : Variable
Overall bit rate : 1 219 kb/s
Writing application : mkvmerge v21.0.0 ('Tardigrades Will Inherit The Earth') 64-bit
Writing library : libebml v1.3.5 + libmatroska v1.4.8

Video
ID : 1
Format : AVC
Format/Info : Advanced Video Codec
Format profile : Main@L3
Format settings : CABAC / 5 Ref Frames
Format settings, CABAC : Yes
Format settings, RefFrames : 5 frames
Codec ID : V_MPEG4/ISO/AVC
Duration : 25 min 13 s
Bit rate mode : Variable
Bit rate : 554 kb/s
Maximum bit rate : 2 400 kb/s
Width : 720 pixels
Height : 480 pixels
Display aspect ratio : 16:9
Frame rate mode : Constant
Frame rate : 23.976 (24000/1001) FPS
Color space : YUV
Chroma subsampling : 4:2:0
Bit depth : 8 bits
Scan type : Progressive
Bits/(Pixel*Frame) : 0.067
Stream size : 100 MiB (45%)
Default : Yes
Forced : No
Color range : Limited
Color primaries : BT.709
Transfer characteristics : BT.709
Matrix coefficients : BT.709
Statistics Tags Issue : mkvmerge v21.0.0 ('Tardigrades Will Inherit The Earth') 64-bit 2018-03-17 01:59:51 / mkvmerge v21.0.0 ('Tardigrades Will Inherit The Earth') 64-bit
FromStats_BitRate : 576621
FromStats_Duration : 00:25:13.221000000
FromStats_FrameCount : 36281
FromStats_StreamSize : 109069478

Audio
ID : 2
Format : E-AC-3
Format/Info : Enhanced Audio Coding 3
Format settings, Endianness : Big
Codec ID : A_EAC3
Duration : 25 min 13 s
Bit rate mode : Constant
Bit rate : 640 kb/s
Channel(s) : 6 channels
Channel positions : Front: L C R, Side: L R, LFE
Sampling rate : 48.0 kHz
Frame rate : 187.500 FPS (256 SPF)
Compression mode : Lossy
Delay relative to video : 20 ms
Stream size : 115 MiB (53%)
Language : English
Service kind : Complete Main
Default : Yes
Forced : No
Statistics Tags Issue : mkvmerge v21.0.0 ('Tardigrades Will Inherit The Earth') 64-bit 2018-03-17 01:59:51 / mkvmerge v21.0.0 ('Tardigrades Will Inherit The Earth') 64-bit
FromStats_BitRate : 640000
FromStats_Duration : 00:25:13.152000000
FromStats_FrameCount : 47286
FromStats_StreamSize : 121052160

Text #1
ID : 3
Format : UTF-8
Codec ID : S_TEXT/UTF8
Codec ID/Info : UTF-8 Plain Text
Language : English
Default : No
Forced : No
Statistics Tags Issue : mkvmerge v21.0.0 ('Tardigrades Will Inherit The Earth') 64-bit 2018-03-17 01:59:51 / mkvmerge v21.0.0 ('Tardigrades Will Inherit The Earth') 64-bit
FromStats_BitRate : 96
FromStats_Duration : 00:24:59.750000000
FromStats_FrameCount : 492
FromStats_StreamSize : 18082

Text #2
ID : 4
Format : UTF-8
Codec ID : S_TEXT/UTF8
Codec ID/Info : UTF-8 Plain Text
Title : SDH
Language : English
Default : No
Forced : No
Statistics Tags Issue : mkvmerge v21.0.0 ('Tardigrades Will Inherit The Earth') 64-bit 2018-03-17 01:59:51 / mkvmerge v21.0.0 ('Tardigrades Will Inherit The Earth') 64-bit
FromStats_BitRate : 103
FromStats_Duration : 00:25:01.125000000
FromStats_FrameCount : 525
FromStats_StreamSize : 19391





High Maintenance S02E08


High Maintenance S02E08


High Maintenance S02E08


High Maintenance S02E08


High Maintenance S02E08

All episodes