Index
# A B C D E F G H I J K L M N O P Q R S T U V W Y Z
Tags
Language
Tags

Featured TV Shows


High Maintenance S02E10

Posted By: Tavaz
SD / WEB-DL IMDb
High Maintenance S02E10

High Maintenance S02E10
WEB-DL | MKV | 720x480 | English | H264 @ 980 kbps | E-AC-3 @ 640 kbps | 22 min 41 s | 268 MiB
Subtitles: English
Genre: Comedy

Jump into the daily routines of a diverse group of New Yorkers and how they light things up. “The Guy” is a nameless pot deliveryman whose client base includes an eccentric group of characters with neuroses as diverse as the city.

4361c72d4cca453fa09c2c00b7dd8c2c.mkv (268.2 MB)



General
Unique ID : 66532410526468149634808342068843760579 (0x320DAD1982D96E35EF29C78CD337CBC3)
Complete name : ./4361c72d4cca453fa09c2c00b7dd8c2c.mkv
Format : Matroska
Format version : Version 4 / Version 2
File size : 268 MiB
Duration : 22 min 41 s
Overall bit rate mode : Variable
Overall bit rate : 1 653 kb/s
Writing application : mkvmerge v21.0.0 ('Tardigrades Will Inherit The Earth') 64-bit
Writing library : libebml v1.3.5 + libmatroska v1.4.8

Video
ID : 1
Format : AVC
Format/Info : Advanced Video Codec
Format profile : Main@L3
Format settings : CABAC / 5 Ref Frames
Format settings, CABAC : Yes
Format settings, RefFrames : 5 frames
Codec ID : V_MPEG4/ISO/AVC
Duration : 22 min 41 s
Bit rate mode : Variable
Bit rate : 980 kb/s
Maximum bit rate : 2 400 kb/s
Width : 720 pixels
Height : 480 pixels
Display aspect ratio : 16:9
Frame rate mode : Constant
Frame rate : 23.976 (24000/1001) FPS
Color space : YUV
Chroma subsampling : 4:2:0
Bit depth : 8 bits
Scan type : Progressive
Bits/(Pixel*Frame) : 0.118
Stream size : 159 MiB (59%)
Default : Yes
Forced : No
Color range : Limited
Color primaries : BT.709
Transfer characteristics : BT.709
Matrix coefficients : BT.709
Statistics Tags Issue : mkvmerge v21.0.0 ('Tardigrades Will Inherit The Earth') 64-bit 2018-03-24 16:05:56 / mkvmerge v21.0.0 ('Tardigrades Will Inherit The Earth') 64-bit
FromStats_BitRate : 1010781
FromStats_Duration : 00:22:41.235000000
FromStats_FrameCount : 32637
FromStats_StreamSize : 171988963

Audio
ID : 2
Format : E-AC-3
Format/Info : Enhanced Audio Coding 3
Format settings, Endianness : Big
Codec ID : A_EAC3
Duration : 22 min 41 s
Bit rate mode : Constant
Bit rate : 640 kb/s
Channel(s) : 6 channels
Channel positions : Front: L C R, Side: L R, LFE
Sampling rate : 48.0 kHz
Frame rate : 187.500 FPS (256 SPF)
Compression mode : Lossy
Delay relative to video : 3 ms
Stream size : 104 MiB (39%)
Language : English
Service kind : Complete Main
Default : Yes
Forced : No
Statistics Tags Issue : mkvmerge v21.0.0 ('Tardigrades Will Inherit The Earth') 64-bit 2018-03-24 16:05:56 / mkvmerge v21.0.0 ('Tardigrades Will Inherit The Earth') 64-bit
FromStats_BitRate : 640000
FromStats_Duration : 00:22:41.184000000
FromStats_FrameCount : 42537
FromStats_StreamSize : 108894720

Text #1
ID : 3
Format : UTF-8
Codec ID : S_TEXT/UTF8
Codec ID/Info : UTF-8 Plain Text
Language : English
Default : No
Forced : No
Statistics Tags Issue : mkvmerge v21.0.0 ('Tardigrades Will Inherit The Earth') 64-bit 2018-03-24 16:05:56 / mkvmerge v21.0.0 ('Tardigrades Will Inherit The Earth') 64-bit
FromStats_BitRate : 84
FromStats_Duration : 00:21:09.792000000
FromStats_FrameCount : 461
FromStats_StreamSize : 13448

Text #2
ID : 4
Format : UTF-8
Codec ID : S_TEXT/UTF8
Codec ID/Info : UTF-8 Plain Text
Title : SDH
Language : English
Default : No
Forced : No
Statistics Tags Issue : mkvmerge v21.0.0 ('Tardigrades Will Inherit The Earth') 64-bit 2018-03-24 16:05:56 / mkvmerge v21.0.0 ('Tardigrades Will Inherit The Earth') 64-bit
FromStats_BitRate : 92
FromStats_Duration : 00:21:09.792000000
FromStats_FrameCount : 505
FromStats_StreamSize : 14734





High Maintenance S02E10


High Maintenance S02E10


High Maintenance S02E10


High Maintenance S02E10


High Maintenance S02E10

All episodes