Index
# A B C D E F G H I J K L M N O P Q R S T U V W Y Z
Tags
Language
Tags

Featured TV Shows


High Maintenance S03E08

Posted By: Tavaz
720p (HD) / WEB-DL IMDb
High Maintenance S03E08

High Maintenance S03E08
WEB-DL | MKV | 1280x720 | English | H264 @ 4407 kbps | E-AC-3 @ 640 kbps | 24 min 7 s | 871 MiB
Subtitles: English
Genre: Comedy

Jump into the daily routines of a diverse group of New Yorkers and how they light things up. “The Guy” is a nameless pot deliveryman whose client base includes an eccentric group of characters with neuroses as diverse as the city.

3e242b6768074b9d8779a13eac0aa6ec.mkv (871.1 MB)



General
Complete name : ./3e242b6768074b9d8779a13eac0aa6ec.mkv
Format : Matroska
Format version : Version 4 / Version 2
File size : 871 MiB
Duration : 24 min 7 s
Overall bit rate : 5 050 kb/s
Writing application : mkvmerge v29.0.0 ('Like It Or Not') 64-bit
Writing library : libebml v1.3.6 + libmatroska v1.4.9

Video
ID : 1
Format : AVC
Format/Info : Advanced Video Codec
Format profile : High@L3.1
Format settings : CABAC / 4 Ref Frames
Format settings, CABAC : Yes
Format settings, RefFrames : 4 frames
Codec ID : V_MPEG4/ISO/AVC
Duration : 24 min 7 s
Bit rate mode : Constant
Bit rate : 4 408 kb/s
Nominal bit rate : 6 000 kb/s
Width : 1 280 pixels
Height : 720 pixels
Display aspect ratio : 16:9
Frame rate mode : Constant
Frame rate : 23.976 (24000/1001) FPS
Color space : YUV
Chroma subsampling : 4:2:0
Bit depth : 8 bits
Scan type : Progressive
Bits/(Pixel*Frame) : 0.199
Stream size : 760 MiB (87%)
Default : Yes
Forced : No
Color range : Limited
Color primaries : BT.709
Transfer characteristics : BT.709
Matrix coefficients : BT.709

Audio
ID : 2
Format : E-AC-3
Format/Info : Enhanced Audio Coding 3
Format settings, Endianness : Big
Codec ID : A_EAC3
Duration : 24 min 7 s
Bit rate mode : Constant
Bit rate : 640 kb/s
Channel(s) : 6 channels
Channel positions : Front: L C R, Side: L R, LFE
Sampling rate : 48.0 kHz
Frame rate : 187.500 FPS (256 SPF)
Compression mode : Lossy
Delay relative to video : 24 ms
Stream size : 110 MiB (13%)
Language : English
Service kind : Complete Main
Default : Yes
Forced : No

Text #1
ID : 3
Format : UTF-8
Codec ID : S_TEXT/UTF8
Codec ID/Info : UTF-8 Plain Text
Duration : 23 min 55 s
Bit rate : 83 b/s
Count of elements : 446
Stream size : 14.6 KiB (0%)
Language : English
Default : No
Forced : No

Text #2
ID : 4
Format : UTF-8
Codec ID : S_TEXT/UTF8
Codec ID/Info : UTF-8 Plain Text
Duration : 23 min 55 s
Bit rate : 83 b/s
Count of elements : 453
Stream size : 14.6 KiB (0%)
Title : SDH
Language : English
Default : No
Forced : No





High Maintenance S03E08


High Maintenance S03E08


High Maintenance S03E08


High Maintenance S03E08


High Maintenance S03E08

All episodes