Featured TV Shows


High Maintenance S04E02

Posted By: Tavaz
720p (HD) / WEB-DL IMDb
High Maintenance S04E02

High Maintenance S04E02
WEB-DL | MKV | 1280x720 | English | H264 @ 3671 kbps | E-AC-3 @ 640 kbps | 30 min 21 s | 936 MiB
Subtitles: English
Genre: Comedy


Jump into the daily routines of a diverse group of New Yorkers and how they light things up. “The Guy” is a nameless pot deliveryman whose client base includes an eccentric group of characters with neuroses as diverse as the city.

2d503862f3ab4ac2ab3bf91c2106bbd9.mkv (935.8 MB)



General
Unique ID : 40812653386382226794981899082975016506 (0x1EB43B2B1E1E0CB4CCFA1D108169F63A)
Complete name : ./2d503862f3ab4ac2ab3bf91c2106bbd9.mkv
Format : Matroska
Format version : Version 4 / Version 2
File size : 936 MiB
Duration : 30 min 21 s
Overall bit rate : 4 310 kb/s
Writing application : mkvmerge v41.0.0 ('Smarra') 64-bit
Writing library : libebml v1.3.9 + libmatroska v1.5.2

Video
ID : 1
Format : AVC
Format/Info : Advanced Video Codec
Format profile : High@L3.1
Format settings : CABAC / 4 Ref Frames
Format settings, CABAC : Yes
Format settings, RefFrames : 4 frames
Codec ID : V_MPEG4/ISO/AVC
Duration : 30 min 19 s
Bit rate mode : Constant
Bit rate : 3 671 kb/s
Nominal bit rate : 6 000 kb/s
Width : 1 280 pixels
Height : 720 pixels
Display aspect ratio : 16:9
Frame rate mode : Constant
Frame rate : 23.976 (24000/1001) FPS
Color space : YUV
Chroma subsampling : 4:2:0
Bit depth : 8 bits
Scan type : Progressive
Bits/(Pixel*Frame) : 0.166
Stream size : 796 MiB (85%)
Default : Yes
Forced : No
Color range : Limited
Color primaries : BT.709
Transfer characteristics : BT.709
Matrix coefficients : BT.709

Audio
ID : 2
Format : E-AC-3
Format/Info : Enhanced Audio Coding 3
Format settings, Endianness : Big
Codec ID : A_EAC3
Duration : 30 min 19 s
Bit rate mode : Constant
Bit rate : 640 kb/s
Channel(s) : 6 channels
Channel positions : Front: L C R, Side: L R, LFE
Sampling rate : 48.0 kHz
Frame rate : 187.500 FPS (256 SPF)
Compression mode : Lossy
Delay relative to video : 24 ms
Stream size : 139 MiB (15%)
Language : English
Service kind : Complete Main
Default : Yes
Forced : No

Text #1
ID : 3
Format : UTF-8
Codec ID : S_TEXT/UTF8
Codec ID/Info : UTF-8 Plain Text
Duration : 30 min 14 s
Bit rate : 78 b/s
Count of elements : 572
Stream size : 17.5 KiB (0%)
Language : English
Default : No
Forced : No

Text #2
ID : 4
Format : UTF-8
Codec ID : S_TEXT/UTF8
Codec ID/Info : UTF-8 Plain Text
Duration : 30 min 14 s
Bit rate : 78 b/s
Count of elements : 577
Stream size : 17.5 KiB (0%)
Title : SDH
Language : English
Default : No
Forced : No





High Maintenance S04E02


High Maintenance S04E02


High Maintenance S04E02


High Maintenance S04E02


High Maintenance S04E02

All episodes