Index
# A B C D E F G H I J K L M N O P Q R S T U V W Y Z
Tags
Language
Tags

Featured TV Shows


High Maintenance S01E07

Posted By: Tavaz
720p (HD) / WEB-DL IMDb
High Maintenance S01E07

High Maintenance S01E07
WEB-DL | MKV | 1280x720 | English | H264 @ 4927 kbps | E-AC-3 @ 224 kbps | 46 min 9 s | 1.66 GiB
Subtitles: English
Genre: Comedy


Jump into the daily routines of a diverse group of New Yorkers and how they light things up. “The Guy” is a nameless pot deliveryman whose client base includes an eccentric group of characters with neuroses as diverse as the city.

b3d9005334424240b54e42b4fff54fd2.mkv (1.7 GB)



General
Unique ID : 72394548814981875450215619475556664914 (0x3676AED4FAE4C58191EB537A16DE0652)
Complete name : ./b3d9005334424240b54e42b4fff54fd2.mkv
Format : Matroska
Format version : Version 4 / Version 2
File size : 1.66 GiB
Duration : 46 min 9 s
Overall bit rate : 5 153 kb/s
Encoded date : UTC 2020-07-19 13:15:58
Writing application : mkvmerge v42.0.0 ('Overtime') 64-bit
Writing library : libebml v1.3.10 + libmatroska v1.5.2

Video
ID : 1
Format : AVC
Format/Info : Advanced Video Codec
Format profile : High@L3.1
Format settings : CABAC / 4 Ref Frames
Format settings, CABAC : Yes
Format settings, RefFrames : 4 frames
Codec ID : V_MPEG4/ISO/AVC
Duration : 46 min 9 s
Bit rate mode : Constant
Bit rate : 4 927 kb/s
Nominal bit rate : 6 000 kb/s
Width : 1 280 pixels
Height : 720 pixels
Display aspect ratio : 16:9
Frame rate mode : Constant
Frame rate : 23.976 (24000/1001) FPS
Color space : YUV
Chroma subsampling : 4:2:0
Bit depth : 8 bits
Scan type : Progressive
Bits/(Pixel*Frame) : 0.223
Stream size : 1.59 GiB (96%)
Default : Yes
Forced : No
Color range : Limited
Color primaries : BT.709
Transfer characteristics : BT.709
Matrix coefficients : BT.709

Audio
ID : 2
Format : E-AC-3
Format/Info : Enhanced Audio Coding 3
Format settings, Endianness : Big
Codec ID : A_EAC3
Duration : 46 min 9 s
Bit rate mode : Constant
Bit rate : 224 kb/s
Channel(s) : 2 channels
Channel positions : Front: L R
Sampling rate : 48.0 kHz
Frame rate : 187.500 FPS (256 SPF)
Compression mode : Lossy
Stream size : 73.9 MiB (4%)
Language : English
Service kind : Complete Main
Default : Yes
Forced : No

Text
ID : 3
Format : UTF-8
Codec ID : S_TEXT/UTF8
Codec ID/Info : UTF-8 Plain Text
Duration : 46 min 0 s
Bit rate : 105 b/s
Count of elements : 894
Stream size : 35.6 KiB (0%)
Title : SDH
Language : English
Default : No
Forced : No





High Maintenance S01E07


High Maintenance S01E07


High Maintenance S01E07


High Maintenance S01E07


High Maintenance S01E07

All episodes