Index
# A B C D E F G H I J K L M N O P Q R S T U V W Y Z
Tags
Language
Tags

Featured TV Shows


High Maintenance S01E08

Posted By: Tavaz
720p (HD) / WEB-DL IMDb
High Maintenance S01E08

High Maintenance S01E08
WEB-DL | MKV | 1280x720 | English | H264 @ 5511 kbps | E-AC-3 @ 224 kbps | 46 min 9 s | 1.85 GiB
Subtitles: English
Genre: Comedy


Jump into the daily routines of a diverse group of New Yorkers and how they light things up. “The Guy” is a nameless pot deliveryman whose client base includes an eccentric group of characters with neuroses as diverse as the city.

47de1a550c434d659a4946b9e1317a08.mkv (1.9 GB)



General
Unique ID : 187914297159082223485653282403383472134 (0x8D5EFA28F9614D43B172F7B56F837006)
Complete name : ./47de1a550c434d659a4946b9e1317a08.mkv
Format : Matroska
Format version : Version 4 / Version 2
File size : 1.85 GiB
Duration : 46 min 9 s
Overall bit rate : 5 738 kb/s
Encoded date : UTC 2020-07-19 13:16:47
Writing application : mkvmerge v42.0.0 ('Overtime') 64-bit
Writing library : libebml v1.3.10 + libmatroska v1.5.2

Video
ID : 1
Format : AVC
Format/Info : Advanced Video Codec
Format profile : High@L3.1
Format settings : CABAC / 4 Ref Frames
Format settings, CABAC : Yes
Format settings, RefFrames : 4 frames
Codec ID : V_MPEG4/ISO/AVC
Duration : 46 min 9 s
Bit rate mode : Constant
Bit rate : 5 512 kb/s
Nominal bit rate : 6 000 kb/s
Width : 1 280 pixels
Height : 720 pixels
Display aspect ratio : 16:9
Frame rate mode : Constant
Frame rate : 23.976 (24000/1001) FPS
Color space : YUV
Chroma subsampling : 4:2:0
Bit depth : 8 bits
Scan type : Progressive
Bits/(Pixel*Frame) : 0.249
Stream size : 1.78 GiB (96%)
Default : Yes
Forced : No
Color range : Limited
Color primaries : BT.709
Transfer characteristics : BT.709
Matrix coefficients : BT.709

Audio
ID : 2
Format : E-AC-3
Format/Info : Enhanced Audio Coding 3
Format settings, Endianness : Big
Codec ID : A_EAC3
Duration : 46 min 9 s
Bit rate mode : Constant
Bit rate : 224 kb/s
Channel(s) : 2 channels
Channel positions : Front: L R
Sampling rate : 48.0 kHz
Frame rate : 187.500 FPS (256 SPF)
Compression mode : Lossy
Stream size : 74.0 MiB (4%)
Language : English
Service kind : Complete Main
Default : Yes
Forced : No

Text
ID : 3
Format : UTF-8
Codec ID : S_TEXT/UTF8
Codec ID/Info : UTF-8 Plain Text
Duration : 45 min 57 s
Bit rate : 95 b/s
Count of elements : 856
Stream size : 32.1 KiB (0%)
Title : SDH
Language : English
Default : No
Forced : No





High Maintenance S01E08


High Maintenance S01E08


High Maintenance S01E08


High Maintenance S01E08


High Maintenance S01E08

All episodes