Featured TV Shows


High Maintenance S01E04

Posted By: Tavaz
1080p (FullHD) / HDTV IMDb
High Maintenance S01E04

High Maintenance S01E04
HDTV | MKV | 1920x1080 | French / English | H264 @ 8319 kbps | E-AC-3 @ 96 kbps | 28 min 41 s | 1.71 GiB
Subtitles: French
Genre: Comedy


Jump into the daily routines of a diverse group of New Yorkers and how they light things up. “The Guy” is a nameless pot deliveryman whose client base includes an eccentric group of characters with neuroses as diverse as the city.

high.maintenance.s01e04.multi.1080p.hdtv.h264-hybris.mkv (1.7 GB)



General
Unique ID : 62796486116124151252021980022181994427 (0x2F3E29CE1DC145F0EDA011A669201FBB)
Complete name : ./high.maintenance.s01e04.multi.1080p.hdtv.h264-hybris.mkv
Format : Matroska
Format version : Version 4 / Version 2
File size : 1.71 GiB
Duration : 28 min 41 s
Overall bit rate : 8 515 kb/s
Encoded date : UTC 2019-06-16 14:57:26
Writing application : mkvmerge v34.0.0 ('Sight and Seen') 32-bit
Writing library : libebml v1.3.7 + libmatroska v1.5.0

Video
ID : 1
Format : AVC
Format/Info : Advanced Video Codec
Format profile : High@L4
Format settings : CABAC / 4 Ref Frames
Format settings, CABAC : Yes
Format settings, RefFrames : 4 frames
Codec ID : V_MPEG4/ISO/AVC
Duration : 28 min 41 s
Bit rate : 8 319 kb/s
Width : 1 920 pixels
Height : 1 080 pixels
Display aspect ratio : 16:9
Frame rate mode : Variable
Frame rate : 50.000 FPS
Original frame rate : 25.000 FPS
Standard : Component
Color space : YUV
Chroma subsampling : 4:2:0
Bit depth : 8 bits
Scan type : Interlaced
Scan type, store method : Separated fields
Scan order : Top Field First
Bits/(Pixel*Frame) : 0.080
Stream size : 1.67 GiB (98%)
Title : High Maintenance S01E04
Language : French
Default : Yes
Forced : No
Color range : Limited
Color primaries : BT.709
Transfer characteristics : BT.709
Matrix coefficients : BT.709

Audio #1
ID : 2
Format : E-AC-3
Format/Info : Enhanced Audio Coding 3
Format settings, Endianness : Big
Codec ID : A_EAC3
Duration : 28 min 41 s
Bit rate mode : Constant
Bit rate : 96.0 kb/s
Channel(s) : 2 channels
Channel positions : Front: L R
Sampling rate : 48.0 kHz
Frame rate : 187.500 FPS (256 SPF)
Compression mode : Lossy
Stream size : 19.7 MiB (1%)
Title : Français E-AC3 2.0
Language : French
Service kind : Complete Main
Default : Yes
Forced : No

Audio #2
ID : 3
Format : E-AC-3
Format/Info : Enhanced Audio Coding 3
Format settings, Endianness : Big
Codec ID : A_EAC3
Duration : 28 min 41 s
Bit rate mode : Constant
Bit rate : 96.0 kb/s
Channel(s) : 2 channels
Channel positions : Front: L R
Sampling rate : 48.0 kHz
Frame rate : 187.500 FPS (256 SPF)
Compression mode : Lossy
Stream size : 19.7 MiB (1%)
Title : Anglais E-AC3 2.0
Language : English
Service kind : Complete Main
Default : No
Forced : No

Text
ID : 5
Format : UTF-8
Codec ID : S_TEXT/UTF8
Codec ID/Info : UTF-8 Plain Text
Duration : 28 min 12 s
Bit rate : 55 b/s
Count of elements : 378
Stream size : 11.4 KiB (0%)
Title : Français
Language : French
Default : No
Forced : No





High Maintenance S01E04


High Maintenance S01E04


High Maintenance S01E04


High Maintenance S01E04


High Maintenance S01E04

All episodes