Index
# A B C D E F G H I J K L M N O P Q R S T U V W Y Z
Tags
Language
Tags

Featured TV Shows


High Maintenance S04E01

Posted By: Tavaz
720p (HD) / WEBRip IMDb
High Maintenance S04E01

High Maintenance S04E01
WEBRip | MKV | 1280x720 | English | H264 @ 2217 kbps | E-AC-3 @ 256 kbps | 30 min 41 s | 543 MiB
Genre: Comedy


Jump into the daily routines of a diverse group of New Yorkers and how they light things up. “The Guy” is a nameless pot deliveryman whose client base includes an eccentric group of characters with neuroses as diverse as the city.

093a6a82e53144bc9f9ef75e962a89ea.mkv (543.3 MB)



General
Unique ID : 30647873430925424968319591635697588843 (0x170E90D2D8588E1036E4FCD69710DA6B)
Complete name : ./093a6a82e53144bc9f9ef75e962a89ea.mkv
Format : Matroska
Format version : Version 4 / Version 2
File size : 543 MiB
Duration : 30 min 41 s
Overall bit rate : 2 475 kb/s
Encoded date : UTC 2020-02-08 04:00:18
Writing application : mkvmerge v38.0.0 ('The Silent Type') 64-bit
Writing library : libebml v1.3.9 + libmatroska v1.5.2

Video
ID : 1
Format : AVC
Format/Info : Advanced Video Codec
Format profile : High@L3.1
Format settings : CABAC / 5 Ref Frames
Format settings, CABAC : Yes
Format settings, RefFrames : 5 frames
Codec ID : V_MPEG4/ISO/AVC
Duration : 30 min 41 s
Bit rate : 2 217 kb/s
Width : 1 280 pixels
Height : 720 pixels
Display aspect ratio : 16:9
Frame rate mode : Constant
Frame rate : 23.976 (24000/1001) FPS
Color space : YUV
Chroma subsampling : 4:2:0
Bit depth : 8 bits
Scan type : Progressive
Bits/(Pixel*Frame) : 0.100
Stream size : 487 MiB (90%)
Default : Yes
Forced : No

Audio
ID : 2
Format : E-AC-3
Format/Info : Enhanced Audio Coding 3
Format settings, Endianness : Big
Codec ID : A_EAC3
Duration : 30 min 41 s
Bit rate mode : Constant
Bit rate : 256 kb/s
Channel(s) : 6 channels
Channel positions : Front: L C R, Side: L R, LFE
Sampling rate : 48.0 kHz
Frame rate : 187.500 FPS (256 SPF)
Compression mode : Lossy
Delay relative to video : 11 ms
Stream size : 56.2 MiB (10%)
Service kind : Complete Main
Default : Yes
Forced : No





High Maintenance S04E01


High Maintenance S04E01


High Maintenance S04E01


High Maintenance S04E01


High Maintenance S04E01

All episodes