Index
# A B C D E F G H I J K L M N O P Q R S T U V W Y Z
Tags
Language
Tags

Featured TV Shows


High Maintenance S04E03

Posted By: Tavaz
1080p (FullHD) / WEBRip IMDb
High Maintenance S04E03

High Maintenance S04E03
WEBRip | MKV | 1920x1080 | Français / English | H264 @ 5000 kbps | AAC @ 128 kbps | 26 min 52 s | 1 002 MiB
Subtitles: Français
Genre: Comedy


Jump into the daily routines of a diverse group of New Yorkers and how they light things up. “The Guy” is a nameless pot deliveryman whose client base includes an eccentric group of characters with neuroses as diverse as the city.

b55c5daf6000446d9fcecaf33ac81668.mkv (1001.6 MB)



General
Unique ID : 194110013983698664229668628677847690642 (0x92083A957F90A0F948308144AB342D92)
Complete name : ./b55c5daf6000446d9fcecaf33ac81668.mkv
Format : Matroska
Format version : Version 4 / Version 2
File size : 1 002 MiB
Duration : 26 min 52 s
Overall bit rate mode : Variable
Overall bit rate : 5 210 kb/s
Encoded date : UTC 2020-02-23 20:35:25
Writing application : mkvmerge v43.0.0 ('The Quartermaster') 64-bit
Writing library : libebml v1.3.10 + libmatroska v1.5.2

Video
ID : 1
Format : AVC
Format/Info : Advanced Video Codec
Format profile : High@L4
Format settings : CABAC / 4 Ref Frames
Format settings, CABAC : Yes
Format settings, RefFrames : 4 frames
Codec ID : V_MPEG4/ISO/AVC
Duration : 26 min 52 s
Bit rate mode : Variable
Bit rate : 5 000 kb/s
Width : 1 920 pixels
Height : 1 080 pixels
Display aspect ratio : 16:9
Frame rate mode : Constant
Frame rate : 25.000 FPS
Color space : YUV
Chroma subsampling : 4:2:0
Bit depth : 8 bits
Scan type : Progressive
Bits/(Pixel*Frame) : 0.096
Stream size : 952 MiB (95%)
Default : Yes
Forced : No

Audio #1
ID : 2
Format : AAC
Format/Info : Advanced Audio Codec
Format profile : LC
Codec ID : A_AAC-2
Duration : 26 min 52 s
Bit rate : 128 kb/s
Channel(s) : 2 channels
Channel positions : Front: L R
Sampling rate : 48.0 kHz
Frame rate : 46.875 FPS (1024 SPF)
Compression mode : Lossy
Stream size : 24.7 MiB (2%)
Title : French
Language : French
Default : Yes
Forced : No

Audio #2
ID : 3
Format : AAC
Format/Info : Advanced Audio Codec
Format profile : LC
Codec ID : A_AAC-2
Duration : 26 min 52 s
Bit rate : 128 kb/s
Channel(s) : 2 channels
Channel positions : Front: L R
Sampling rate : 48.0 kHz
Frame rate : 46.875 FPS (1024 SPF)
Compression mode : Lossy
Stream size : 24.6 MiB (2%)
Title : English
Language : English
Default : No
Forced : No

Text
ID : 4
Format : UTF-8
Codec ID : S_TEXT/UTF8
Codec ID/Info : UTF-8 Plain Text
Duration : 26 min 32 s
Bit rate : 104 b/s
Count of elements : 659
Stream size : 20.3 KiB (0%)
Title : French
Language : French
Default : No
Forced : No





High Maintenance S04E03


High Maintenance S04E03


High Maintenance S04E03


High Maintenance S04E03


High Maintenance S04E03

All episodes