Index
# A B C D E F G H I J K L M N O P Q R S T U V W Y Z
Tags
Language
Tags

Featured TV Shows


High Maintenance S04E04

Posted By: Tavaz
1080p (FullHD) / WEBRip IMDb
High Maintenance S04E04

High Maintenance S04E04
WEBRip | MKV | 1920x1080 | Français / English | H264 @ 4868 kbps | AAC @ 127 kbps | 24 min 21 s | 894 MiB
Subtitles: Français
Genre: Comedy


Jump into the daily routines of a diverse group of New Yorkers and how they light things up. “The Guy” is a nameless pot deliveryman whose client base includes an eccentric group of characters with neuroses as diverse as the city.

640f211fb43943cb83071865847bf7ed.mkv (893.6 MB)



General
Unique ID : 240333280762540000516383941400309663852 (0xB4CE8196AC549EA85367088AED96086C)
Complete name : ./640f211fb43943cb83071865847bf7ed.mkv
Format : Matroska
Format version : Version 4 / Version 2
File size : 894 MiB
Duration : 24 min 21 s
Overall bit rate mode : Variable
Overall bit rate : 5 128 kb/s
Encoded date : UTC 2020-02-29 07:00:49
Writing application : mkvmerge v43.0.0 ('The Quartermaster') 64-bit
Writing library : libebml v1.3.10 + libmatroska v1.5.2

Video
ID : 1
Format : AVC
Format/Info : Advanced Video Codec
Format profile : High@L4
Format settings : CABAC / 4 Ref Frames
Format settings, CABAC : Yes
Format settings, RefFrames : 4 frames
Codec ID : V_MPEG4/ISO/AVC
Duration : 24 min 21 s
Bit rate mode : Variable
Bit rate : 4 869 kb/s
Maximum bit rate : 5 000 kb/s
Width : 1 920 pixels
Height : 1 080 pixels
Display aspect ratio : 16:9
Frame rate mode : Constant
Frame rate : 25.000 FPS
Color space : YUV
Chroma subsampling : 4:2:0
Bit depth : 8 bits
Scan type : Progressive
Bits/(Pixel*Frame) : 0.094
Stream size : 848 MiB (95%)
Default : Yes
Forced : No

Audio #1
ID : 2
Format : AAC
Format/Info : Advanced Audio Codec
Format profile : LC
Codec ID : A_AAC-2
Duration : 24 min 21 s
Bit rate : 128 kb/s
Channel(s) : 2 channels
Channel positions : Front: L R
Sampling rate : 48.0 kHz
Frame rate : 46.875 FPS (1024 SPF)
Compression mode : Lossy
Stream size : 22.3 MiB (2%)
Title : French
Language : French
Default : Yes
Forced : No

Audio #2
ID : 3
Format : AAC
Format/Info : Advanced Audio Codec
Format profile : LC
Codec ID : A_AAC-2
Duration : 24 min 21 s
Bit rate : 128 kb/s
Channel(s) : 2 channels
Channel positions : Front: L R
Sampling rate : 48.0 kHz
Frame rate : 46.875 FPS (1024 SPF)
Compression mode : Lossy
Stream size : 22.3 MiB (2%)
Title : English
Language : English
Default : No
Forced : No

Text
ID : 4
Format : UTF-8
Codec ID : S_TEXT/UTF8
Codec ID/Info : UTF-8 Plain Text
Duration : 22 min 56 s
Bit rate : 73 b/s
Count of elements : 432
Stream size : 12.4 KiB (0%)
Title : French
Language : French
Default : No
Forced : No





High Maintenance S04E04


High Maintenance S04E04


High Maintenance S04E04


High Maintenance S04E04


High Maintenance S04E04

All episodes