Index
# A B C D E F G H I J K L M N O P Q R S T U V W Y Z
Tags
Language
Tags

Featured TV Shows


High Maintenance S04E05

Posted By: Tavaz
1080p (FullHD) / WEBRip IMDb
High Maintenance S04E05

High Maintenance S04E05
WEBRip | MKV | 1920x1080 | H264 @ 5060 kbps | E-AC-3 @ 256 kbps | 26 min 45 s | 1 018 MiB
Subtitles: English
Genre: Comedy


Jump into the daily routines of a diverse group of New Yorkers and how they light things up. “The Guy” is a nameless pot deliveryman whose client base includes an eccentric group of characters with neuroses as diverse as the city.

ffcf498d67214c70a90a8ffd063416f8.mkv (1017.7 MB)



General
Unique ID : 330096125130589372124370511347537194427 (0xF85633814995CA10D8D14C129924ADBB)
Complete name : ./ffcf498d67214c70a90a8ffd063416f8.mkv
Format : Matroska
Format version : Version 4 / Version 2
File size : 1 018 MiB
Duration : 26 min 45 s
Overall bit rate : 5 318 kb/s
Encoded date : UTC 2020-03-07 04:00:22
Writing application : mkvmerge v38.0.0 ('The Silent Type') 64-bit
Writing library : libebml v1.3.9 + libmatroska v1.5.2

Video
ID : 1
Format : AVC
Format/Info : Advanced Video Codec
Format profile : High@L4
Format settings : CABAC / 4 Ref Frames
Format settings, CABAC : Yes
Format settings, RefFrames : 4 frames
Codec ID : V_MPEG4/ISO/AVC
Duration : 26 min 45 s
Bit rate : 5 061 kb/s
Width : 1 920 pixels
Height : 1 080 pixels
Display aspect ratio : 16:9
Frame rate mode : Constant
Frame rate : 23.976 (24000/1001) FPS
Color space : YUV
Chroma subsampling : 4:2:0
Bit depth : 8 bits
Scan type : Progressive
Bits/(Pixel*Frame) : 0.102
Stream size : 968 MiB (95%)
Default : Yes
Forced : No

Audio
ID : 2
Format : E-AC-3
Format/Info : Enhanced Audio Coding 3
Format settings, Endianness : Big
Codec ID : A_EAC3
Duration : 26 min 45 s
Bit rate mode : Constant
Bit rate : 256 kb/s
Channel(s) : 6 channels
Channel positions : Front: L C R, Side: L R, LFE
Sampling rate : 48.0 kHz
Frame rate : 187.500 FPS (256 SPF)
Compression mode : Lossy
Delay relative to video : 11 ms
Stream size : 49.0 MiB (5%)
Service kind : Complete Main
Default : Yes
Forced : No

Text
ID : 3
Format : S_TEXT/WEBVTT
Codec ID : S_TEXT/WEBVTT
Duration : 26 min 41 s
Bit rate : 109 b/s
Count of elements : 577
Stream size : 21.4 KiB (0%)
Language : English
Default : Yes
Forced : No





High Maintenance S04E05


High Maintenance S04E05


High Maintenance S04E05


High Maintenance S04E05


High Maintenance S04E05

All episodes