Index
# A B C D E F G H I J K L M N O P Q R S T U V W Y Z
Tags
Language
Tags

Featured TV Shows


High Maintenance S04E06

Posted By: Tavaz
1080p (FullHD) / WEBRip IMDb
High Maintenance S04E06

High Maintenance S04E06
WEBRip | MKV | 1920x1080 | H264 @ 4883 kbps | E-AC-3 @ 256 kbps | 31 min 2 s | 1.12 GiB
Genre: Comedy


Jump into the daily routines of a diverse group of New Yorkers and how they light things up. “The Guy” is a nameless pot deliveryman whose client base includes an eccentric group of characters with neuroses as diverse as the city.

83fc521d2b3b4afb93c6fac51a90a38b.mkv (1.1 GB)



General
Unique ID : 266965057592645798531906914890719295934 (0xC8D7998FEB2B103B1007F3C34F01F9BE)
Complete name : ./83fc521d2b3b4afb93c6fac51a90a38b.mkv
Format : Matroska
Format version : Version 4 / Version 2
File size : 1.12 GiB
Duration : 31 min 2 s
Overall bit rate : 5 141 kb/s
Encoded date : UTC 2020-03-14 03:00:24
Writing application : mkvmerge v38.0.0 ('The Silent Type') 64-bit
Writing library : libebml v1.3.9 + libmatroska v1.5.2

Video
ID : 1
Format : AVC
Format/Info : Advanced Video Codec
Format profile : High@L4
Format settings : CABAC / 4 Ref Frames
Format settings, CABAC : Yes
Format settings, RefFrames : 4 frames
Codec ID : V_MPEG4/ISO/AVC
Duration : 31 min 2 s
Bit rate : 4 884 kb/s
Width : 1 920 pixels
Height : 1 080 pixels
Display aspect ratio : 16:9
Frame rate mode : Constant
Frame rate : 23.976 (24000/1001) FPS
Color space : YUV
Chroma subsampling : 4:2:0
Bit depth : 8 bits
Scan type : Progressive
Bits/(Pixel*Frame) : 0.098
Stream size : 1.06 GiB (95%)
Default : Yes
Forced : No

Audio
ID : 2
Format : E-AC-3
Format/Info : Enhanced Audio Coding 3
Format settings, Endianness : Big
Codec ID : A_EAC3
Duration : 31 min 2 s
Bit rate mode : Constant
Bit rate : 256 kb/s
Channel(s) : 6 channels
Channel positions : Front: L C R, Side: L R, LFE
Sampling rate : 48.0 kHz
Frame rate : 187.500 FPS (256 SPF)
Compression mode : Lossy
Delay relative to video : 5 ms
Stream size : 56.9 MiB (5%)
Service kind : Complete Main
Default : Yes
Forced : No





High Maintenance S04E06


High Maintenance S04E06


High Maintenance S04E06


High Maintenance S04E06


High Maintenance S04E06

All episodes