Index
# A B C D E F G H I J K L M N O P Q R S T U V W Y Z
Tags
Language
Tags

Featured TV Shows


High Maintenance S04E07

Posted By: Tavaz
720p (HD) / WEBRip IMDb
High Maintenance S04E07

High Maintenance S04E07
WEBRip | MKV | 1280x720 | H264 @ 1867 kbps | E-AC-3 @ 256 kbps | 29 min 4 s | 442 MiB
Subtitles: English
Genre: Comedy


Jump into the daily routines of a diverse group of New Yorkers and how they light things up. “The Guy” is a nameless pot deliveryman whose client base includes an eccentric group of characters with neuroses as diverse as the city.

a83597eca5714e6086bcbe876009d4c3.mkv (442.1 MB)



General
Unique ID : 300805576620966115683165822005437225591 (0xE24D0BF77FF973C5497677E041B35A77)
Complete name : ./a83597eca5714e6086bcbe876009d4c3.mkv
Format : Matroska
Format version : Version 4 / Version 2
File size : 442 MiB
Duration : 29 min 4 s
Overall bit rate : 2 126 kb/s
Encoded date : UTC 2020-03-21 03:00:22
Writing application : mkvmerge v38.0.0 ('The Silent Type') 64-bit
Writing library : libebml v1.3.9 + libmatroska v1.5.2

Video
ID : 1
Format : AVC
Format/Info : Advanced Video Codec
Format profile : High@L3.1
Format settings : CABAC / 5 Ref Frames
Format settings, CABAC : Yes
Format settings, RefFrames : 5 frames
Codec ID : V_MPEG4/ISO/AVC
Duration : 29 min 4 s
Bit rate : 1 868 kb/s
Width : 1 280 pixels
Height : 720 pixels
Display aspect ratio : 16:9
Frame rate mode : Constant
Frame rate : 23.976 (24000/1001) FPS
Color space : YUV
Chroma subsampling : 4:2:0
Bit depth : 8 bits
Scan type : Progressive
Bits/(Pixel*Frame) : 0.085
Stream size : 388 MiB (88%)
Default : Yes
Forced : No

Audio
ID : 2
Format : E-AC-3
Format/Info : Enhanced Audio Coding 3
Format settings, Endianness : Big
Codec ID : A_EAC3
Duration : 29 min 4 s
Bit rate mode : Constant
Bit rate : 256 kb/s
Channel(s) : 6 channels
Channel positions : Front: L C R, Side: L R, LFE
Sampling rate : 48.0 kHz
Frame rate : 187.500 FPS (256 SPF)
Compression mode : Lossy
Delay relative to video : 11 ms
Stream size : 53.2 MiB (12%)
Service kind : Complete Main
Default : Yes
Forced : No

Text
ID : 3
Format : UTF-8
Codec ID : S_TEXT/UTF8
Codec ID/Info : UTF-8 Plain Text
Duration : 29 min 0 s
Bit rate : 98 b/s
Count of elements : 590
Stream size : 20.8 KiB (0%)
Language : English
Default : No
Forced : No





High Maintenance S04E07


High Maintenance S04E07


High Maintenance S04E07


High Maintenance S04E07


High Maintenance S04E07

All episodes