Index
# A B C D E F G H I J K L M N O P Q R S T U V W Y Z
Tags
Language
Tags

Featured TV Shows


High Maintenance S04E09

Posted By: Tavaz
1080p (FullHD) / WEBRip IMDb
High Maintenance S04E09

High Maintenance S04E09
WEBRip | MKV | 1920x1080 | H264 @ 4163 kbps | E-AC-3 @ 256 kbps | 34 min 15 s | 1.06 GiB
Subtitles: English
Genre: Comedy


Jump into the daily routines of a diverse group of New Yorkers and how they light things up. “The Guy” is a nameless pot deliveryman whose client base includes an eccentric group of characters with neuroses as diverse as the city.

824ea4d6ca50424aae2fa874c6cfc50a.mkv (1.1 GB)



General
Unique ID : 327530197616639242781812018692085586601 (0xF6680582DD81DA96EF405AEF3B111AA9)
Complete name : ./824ea4d6ca50424aae2fa874c6cfc50a.mkv
Format : Matroska
Format version : Version 4 / Version 2
File size : 1.06 GiB
Duration : 34 min 15 s
Overall bit rate : 4 422 kb/s
Encoded date : UTC 2020-04-04 03:00:28
Writing application : mkvmerge v38.0.0 ('The Silent Type') 64-bit
Writing library : libebml v1.3.9 + libmatroska v1.5.2

Video
ID : 1
Format : AVC
Format/Info : Advanced Video Codec
Format profile : High@L4
Format settings : CABAC / 4 Ref Frames
Format settings, CABAC : Yes
Format settings, RefFrames : 4 frames
Codec ID : V_MPEG4/ISO/AVC
Duration : 34 min 15 s
Bit rate : 4 164 kb/s
Width : 1 920 pixels
Height : 1 080 pixels
Display aspect ratio : 16:9
Frame rate mode : Constant
Frame rate : 23.976 (24000/1001) FPS
Color space : YUV
Chroma subsampling : 4:2:0
Bit depth : 8 bits
Scan type : Progressive
Bits/(Pixel*Frame) : 0.084
Stream size : 1 020 MiB (94%)
Default : Yes
Forced : No

Audio
ID : 2
Format : E-AC-3
Format/Info : Enhanced Audio Coding 3
Format settings, Endianness : Big
Codec ID : A_EAC3
Duration : 34 min 15 s
Bit rate mode : Constant
Bit rate : 256 kb/s
Channel(s) : 6 channels
Channel positions : Front: L C R, Side: L R, LFE
Sampling rate : 48.0 kHz
Frame rate : 187.500 FPS (256 SPF)
Compression mode : Lossy
Delay relative to video : 4 ms
Stream size : 62.7 MiB (6%)
Service kind : Complete Main
Default : Yes
Forced : No

Text
ID : 3
Format : UTF-8
Codec ID : S_TEXT/UTF8
Codec ID/Info : UTF-8 Plain Text
Duration : 33 min 50 s
Bit rate : 107 b/s
Count of elements : 753
Stream size : 26.6 KiB (0%)
Language : English
Default : No
Forced : No





High Maintenance S04E09


High Maintenance S04E09


High Maintenance S04E09


High Maintenance S04E09


High Maintenance S04E09

All episodes