Featured TV Shows


High Seas S02E05

Posted By: Tavaz
720p (HD) / WEB-DL IMDb
High Seas S02E05

High Seas S02E05
WEB-DL | MKV | 1280x720 | Spanish | H264 @ 1270 kbps | E-AC-3 @ 640 kbps | 43 min 12 s | 585 MiB
Subtitles: Swedish, Norwegian Bokmal, Turkish, Romanian, Hindi, Dutch, Korean, Danish, Indonesian, Hungarian, Vietnamese, French, Russian, Thai, Finnish, Hebrew, Greek, English, Italian, Portuguese, Chinese, Czech, Japanese, German, Spanish, Polish, Arabic
Genre: Crime, Drama


Two sisters discover disturbing family secrets after a string of mysterious deaths occur on a luxury ship traveling from Spain to Brazil in the 1940s.

6e7b4aa89b7a4bfd9ba2859891ed1ce9.mkv (585.2 MB)



General
Unique ID : 275916152982671116606937331201990827292 (0xCF9384A34FE8C9C5B6AF3A3B21C59D1C)
Complete name : ./6e7b4aa89b7a4bfd9ba2859891ed1ce9.mkv
Format : Matroska
Format version : Version 4 / Version 2
File size : 585 MiB
Duration : 43 min 12 s
Overall bit rate mode : Variable
Overall bit rate : 1 894 kb/s
Encoded date : UTC 2019-11-22 19:46:32
Writing application : mkvmerge v38.0.0 ('The Silent Type') 64-bit
Writing library : libebml v1.3.9 + libmatroska v1.5.2

Video
ID : 1
Format : AVC
Format/Info : Advanced Video Codec
Format profile : Main@L3.1
Format settings : CABAC / 3 Ref Frames
Format settings, CABAC : Yes
Format settings, RefFrames : 3 frames
Codec ID : V_MPEG4/ISO/AVC
Duration : 43 min 12 s
Bit rate mode : Variable
Bit rate : 1 270 kb/s
Maximum bit rate : 1 905 kb/s
Width : 1 280 pixels
Height : 720 pixels
Display aspect ratio : 16:9
Frame rate mode : Constant
Frame rate : 25.000 FPS
Color space : YUV
Chroma subsampling : 4:2:0
Bit depth : 8 bits
Scan type : Progressive
Bits/(Pixel*Frame) : 0.055
Stream size : 385 MiB (66%)
Writing library : x264 core 148 r2715 7e75228
Encoding settings : cabac=1 / ref=3 / deblock=1:0:0 / analyse=0x1:0x111 / me=umh / subme=10 / psy=1 / psy_rd=1.00:0.00 / mixed_ref=1 / me_range=24 / chroma_me=1 / trellis=2 / 8x8dct=0 / cqm=0 / deadzone=21,11 / fast_pskip=1 / chroma_qp_offset=-2 / threads=8 / lookahead_threads=1 / sliced_threads=0 / nr=0 / decimate=1 / interlaced=0 / bluray_compat=0 / stitchable=1 / constrained_intra=0 / bframes=2 / b_pyramid=0 / b_adapt=2 / b_bias=0 / direct=3 / weightb=1 / open_gop=0 / weightp=2 / keyint=250 / keyint_min=25 / scenecut=0 / intra_refresh=0 / rc_lookahead=50 / rc=2pass / mbtree=1 / bitrate=1270 / ratetol=1.0 / qcomp=0.50 / qpmin=6 / qpmax=51 / qpstep=4 / cplxblur=20.0 / qblur=0.5 / vbv_maxrate=1905 / vbv_bufsize=2540 / nal_hrd=vbr / filler=0 / ip_ratio=1.40 / aq=1:1.00
Default : Yes
Forced : No

Audio
ID : 2
Format : E-AC-3
Format/Info : Enhanced Audio Coding 3
Format settings, Endianness : Big
Codec ID : A_EAC3
Duration : 43 min 12 s
Bit rate mode : Constant
Bit rate : 640 kb/s
Channel(s) : 6 channels
Channel positions : Front: L C R, Side: L R, LFE
Sampling rate : 48.0 kHz
Frame rate : 187.500 FPS (256 SPF)
Compression mode : Lossy
Stream size : 198 MiB (34%)
Title : European
Language : Spanish
Service kind : Complete Main
Default : Yes
Forced : No

Text #1
ID : 3
Format : UTF-8
Codec ID : S_TEXT/UTF8
Codec ID/Info : UTF-8 Plain Text
Duration : 42 min 33 s
Bit rate : 59 b/s
Count of elements : 604
Stream size : 18.6 KiB (0%)
Language : English
Default : Yes
Forced : No

Text #2
ID : 4
Format : UTF-8
Codec ID : S_TEXT/UTF8
Codec ID/Info : UTF-8 Plain Text
Duration : 42 min 33 s
Bit rate : 61 b/s
Count of elements : 612
Stream size : 19.1 KiB (0%)
Title : SDH
Language : English
Default : No
Forced : No

Text #3
ID : 5
Format : UTF-8
Codec ID : S_TEXT/UTF8
Codec ID/Info : UTF-8 Plain Text
Duration : 42 min 33 s
Bit rate : 61 b/s
Count of elements : 629
Stream size : 19.2 KiB (0%)
Title : SDH
Language : English
Default : No
Forced : No

Text #4
ID : 6
Format : UTF-8
Codec ID : S_TEXT/UTF8
Codec ID/Info : UTF-8 Plain Text
Duration : 40 min 27 s
Bit rate : 56 b/s
Count of elements : 626
Stream size : 16.6 KiB (0%)
Title : European (SDH)
Language : Spanish
Default : No
Forced : No

Text #5
ID : 7
Format : UTF-8
Codec ID : S_TEXT/UTF8
Codec ID/Info : UTF-8 Plain Text
Duration : 42 min 33 s
Bit rate : 101 b/s
Count of elements : 621
Stream size : 31.7 KiB (0%)
Language : Arabic
Default : No
Forced : No

Text #6
ID : 8
Format : UTF-8
Codec ID : S_TEXT/UTF8
Codec ID/Info : UTF-8 Plain Text
Duration : 42 min 33 s
Bit rate : 51 b/s
Count of elements : 619
Stream size : 16.1 KiB (0%)
Language : Czech
Default : No
Forced : No

Text #7
ID : 9
Format : UTF-8
Codec ID : S_TEXT/UTF8
Codec ID/Info : UTF-8 Plain Text
Duration : 42 min 33 s
Bit rate : 46 b/s
Count of elements : 602
Stream size : 14.5 KiB (0%)
Language : Danish
Default : No
Forced : No

Text #8
ID : 10
Format : UTF-8
Codec ID : S_TEXT/UTF8
Codec ID/Info : UTF-8 Plain Text
Duration : 42 min 33 s
Bit rate : 49 b/s
Count of elements : 618
Stream size : 15.3 KiB (0%)
Language : German
Default : No
Forced : No

Text #9
ID : 11
Format : UTF-8
Codec ID : S_TEXT/UTF8
Codec ID/Info : UTF-8 Plain Text
Duration : 42 min 33 s
Bit rate : 85 b/s
Count of elements : 619
Stream size : 26.8 KiB (0%)
Language : Greek
Default : No
Forced : No

Text #10
ID : 12
Format : UTF-8
Codec ID : S_TEXT/UTF8
Codec ID/Info : UTF-8 Plain Text
Duration : 42 min 33 s
Bit rate : 60 b/s
Count of elements : 621
Stream size : 18.7 KiB (0%)
Language : English
Default : No
Forced : No

Text #11
ID : 13
Format : UTF-8
Codec ID : S_TEXT/UTF8
Codec ID/Info : UTF-8 Plain Text
Duration : 40 min 20 s
Bit rate : 54 b/s
Count of elements : 615
Stream size : 16.0 KiB (0%)
Title : European
Language : Spanish
Default : No
Forced : No

Text #12
ID : 14
Format : UTF-8
Codec ID : S_TEXT/UTF8
Codec ID/Info : UTF-8 Plain Text
Duration : 42 min 33 s
Bit rate : 57 b/s
Count of elements : 515
Stream size : 17.9 KiB (0%)
Language : Finnish
Default : No
Forced : No

Text #13
ID : 15
Format : UTF-8
Codec ID : S_TEXT/UTF8
Codec ID/Info : UTF-8 Plain Text
Duration : 42 min 33 s
Bit rate : 51 b/s
Count of elements : 599
Stream size : 16.1 KiB (0%)
Language : French
Default : No
Forced : No

Text #14
ID : 16
Format : UTF-8
Codec ID : S_TEXT/UTF8
Codec ID/Info : UTF-8 Plain Text
Duration : 42 min 33 s
Bit rate : 91 b/s
Count of elements : 621
Stream size : 28.5 KiB (0%)
Language : Hebrew
Default : No
Forced : No

Text #15
ID : 17
Format : UTF-8
Codec ID : S_TEXT/UTF8
Codec ID/Info : UTF-8 Plain Text
Duration : 42 min 33 s
Bit rate : 162 b/s
Count of elements : 621
Stream size : 50.8 KiB (0%)
Language : Hindi
Default : No
Forced : No

Text #16
ID : 18
Format : UTF-8
Codec ID : S_TEXT/UTF8
Codec ID/Info : UTF-8 Plain Text
Duration : 42 min 33 s
Bit rate : 51 b/s
Count of elements : 619
Stream size : 16.1 KiB (0%)
Language : Hungarian
Default : No
Forced : No

Text #17
ID : 19
Format : UTF-8
Codec ID : S_TEXT/UTF8
Codec ID/Info : UTF-8 Plain Text
Duration : 42 min 33 s
Bit rate : 49 b/s
Count of elements : 619
Stream size : 15.5 KiB (0%)
Language : Indonesian
Default : No
Forced : No

Text #18
ID : 20
Format : UTF-8
Codec ID : S_TEXT/UTF8
Codec ID/Info : UTF-8 Plain Text
Duration : 42 min 33 s
Bit rate : 51 b/s
Count of elements : 619
Stream size : 16.2 KiB (0%)
Language : Italian
Default : No
Forced : No

Text #19
ID : 21
Format : UTF-8
Codec ID : S_TEXT/UTF8
Codec ID/Info : UTF-8 Plain Text
Duration : 42 min 32 s
Bit rate : 54 b/s
Count of elements : 625
Stream size : 17.0 KiB (0%)
Language : Japanese
Default : No
Forced : No

Text #20
ID : 22
Format : UTF-8
Codec ID : S_TEXT/UTF8
Codec ID/Info : UTF-8 Plain Text
Duration : 42 min 33 s
Bit rate : 74 b/s
Count of elements : 620
Stream size : 23.3 KiB (0%)
Language : Korean
Default : No
Forced : No

Text #21
ID : 23
Format : UTF-8
Codec ID : S_TEXT/UTF8
Codec ID/Info : UTF-8 Plain Text
Duration : 42 min 33 s
Bit rate : 51 b/s
Count of elements : 417
Stream size : 16.0 KiB (0%)
Language : Norwegian Bokmal
Default : No
Forced : No

Text #22
ID : 24
Format : UTF-8
Codec ID : S_TEXT/UTF8
Codec ID/Info : UTF-8 Plain Text
Duration : 42 min 33 s
Bit rate : 54 b/s
Count of elements : 510
Stream size : 17.0 KiB (0%)
Language : Dutch
Default : No
Forced : No

Text #23
ID : 25
Format : UTF-8
Codec ID : S_TEXT/UTF8
Codec ID/Info : UTF-8 Plain Text
Duration : 42 min 33 s
Bit rate : 52 b/s
Count of elements : 619
Stream size : 16.2 KiB (0%)
Language : Polish
Default : No
Forced : No

Text #24
ID : 26
Format : UTF-8
Codec ID : S_TEXT/UTF8
Codec ID/Info : UTF-8 Plain Text
Duration : 42 min 33 s
Bit rate : 51 b/s
Count of elements : 617
Stream size : 16.2 KiB (0%)
Title : European
Language : Portuguese
Default : No
Forced : No

Text #25
ID : 27
Format : UTF-8
Codec ID : S_TEXT/UTF8
Codec ID/Info : UTF-8 Plain Text
Duration : 42 min 33 s
Bit rate : 51 b/s
Count of elements : 619
Stream size : 16.2 KiB (0%)
Title : Brazilian
Language : Portuguese
Default : No
Forced : No

Text #26
ID : 28
Format : UTF-8
Codec ID : S_TEXT/UTF8
Codec ID/Info : UTF-8 Plain Text
Duration : 42 min 33 s
Bit rate : 58 b/s
Count of elements : 619
Stream size : 18.3 KiB (0%)
Language : Romanian
Default : No
Forced : No

Text #27
ID : 29
Format : UTF-8
Codec ID : S_TEXT/UTF8
Codec ID/Info : UTF-8 Plain Text
Duration : 42 min 33 s
Bit rate : 89 b/s
Count of elements : 621
Stream size : 28.1 KiB (0%)
Language : Russian
Default : No
Forced : No

Text #28
ID : 30
Format : UTF-8
Codec ID : S_TEXT/UTF8
Codec ID/Info : UTF-8 Plain Text
Duration : 42 min 33 s
Bit rate : 57 b/s
Count of elements : 501
Stream size : 17.8 KiB (0%)
Language : Swedish
Default : No
Forced : No

Text #29
ID : 31
Format : UTF-8
Codec ID : S_TEXT/UTF8
Codec ID/Info : UTF-8 Plain Text
Duration : 42 min 33 s
Bit rate : 152 b/s
Count of elements : 621
Stream size : 47.4 KiB (0%)
Language : Thai
Default : No
Forced : No

Text #30
ID : 32
Format : UTF-8
Codec ID : S_TEXT/UTF8
Codec ID/Info : UTF-8 Plain Text
Duration : 42 min 33 s
Bit rate : 51 b/s
Count of elements : 619
Stream size : 16.0 KiB (0%)
Language : Turkish
Default : No
Forced : No

Text #31
ID : 33
Format : UTF-8
Codec ID : S_TEXT/UTF8
Codec ID/Info : UTF-8 Plain Text
Duration : 42 min 33 s
Bit rate : 77 b/s
Count of elements : 616
Stream size : 24.0 KiB (0%)
Language : Vietnamese
Default : No
Forced : No

Text #32
ID : 34
Format : UTF-8
Codec ID : S_TEXT/UTF8
Codec ID/Info : UTF-8 Plain Text
Duration : 42 min 33 s
Bit rate : 63 b/s
Count of elements : 621
Stream size : 19.7 KiB (0%)
Title : Simplified
Language : Chinese
Default : No
Forced : No

Text #33
ID : 35
Format : UTF-8
Codec ID : S_TEXT/UTF8
Codec ID/Info : UTF-8 Plain Text
Duration : 42 min 33 s
Bit rate : 57 b/s
Count of elements : 621
Stream size : 18.0 KiB (0%)
Title : Traditional
Language : Chinese
Default : No
Forced : No





High Seas S02E05


High Seas S02E05


High Seas S02E05


High Seas S02E05


High Seas S02E05

All episodes