Featured TV Shows


History 101 S01E06

Posted By: Tavaz
1080p (FullHD) / WEBRip IMDb
History 101 S01E06

History 101 S01E06
WEBRip | MKV | 1920x1080 | English | H264 @ 7500 kbps | AAC @ 127 kbps | 21 min 24 s | 1.11 GiB
Subtitles: ภาษาไทย, Hrvatski, Français, tiếng Việt, Español, Magyar, 日本語, עברית, 한국어, Русский, Ελληνικά, Nederlands, Dansk, Bahasa Indonesia, 中文, Suomi, Polski, Türkçe, English, Română, العربية, Deutsch, Svenska, Italiano, Português, Čeština
Genre: Documentary


Infographics and archival footage deliver bite-size history lessons on scientific breakthroughs, social movements and world-changing discoveries.

9ecbb2f704ba4ec98b61ad1bf97a47e4.mkv (1.1 GB)



General
Unique ID : 303026841896370209787396718279908047675 (0xE3F8D8CCDFC8FB0293E51421C0DEBB3B)
Complete name : ./9ecbb2f704ba4ec98b61ad1bf97a47e4.mkv
Format : Matroska
Format version : Version 4 / Version 2
File size : 1.11 GiB
Duration : 21 min 24 s
Overall bit rate mode : Variable
Overall bit rate : 7 422 kb/s
Encoded date : UTC 2020-05-22 19:53:30
Writing application : mkvmerge v45.0.0 ('Heaven in Pennies') 64-bit
Writing library : libebml v1.3.10 + libmatroska v1.5.2

Video
ID : 1
Format : AVC
Format/Info : Advanced Video Codec
Format profile : Main@L4
Format settings : CABAC / 3 Ref Frames
Format settings, CABAC : Yes
Format settings, RefFrames : 3 frames
Codec ID : V_MPEG4/ISO/AVC
Duration : 21 min 24 s
Bit rate mode : Variable
Bit rate : 7 500 kb/s
Maximum bit rate : 11.2 Mb/s
Width : 1 920 pixels
Height : 1 080 pixels
Display aspect ratio : 16:9
Frame rate mode : Constant
Frame rate : 25.000 FPS
Color space : YUV
Chroma subsampling : 4:2:0
Bit depth : 8 bits
Scan type : Progressive
Bits/(Pixel*Frame) : 0.145
Stream size : 1.09 GiB (98%)
Writing library : x264 core 148 r2717 0d2410d
Encoding settings : cabac=1 / ref=3 / deblock=1:0:0 / analyse=0x1:0x111 / me=umh / subme=10 / psy=1 / psy_rd=1.00:0.00 / mixed_ref=1 / me_range=24 / chroma_me=1 / trellis=2 / 8x8dct=0 / cqm=0 / deadzone=21,11 / fast_pskip=1 / chroma_qp_offset=-2 / threads=8 / lookahead_threads=1 / sliced_threads=0 / nr=0 / decimate=1 / interlaced=0 / bluray_compat=0 / stitchable=1 / constrained_intra=0 / bframes=2 / b_pyramid=0 / b_adapt=2 / b_bias=0 / direct=3 / weightb=1 / open_gop=0 / weightp=2 / keyint=250 / keyint_min=25 / scenecut=0 / intra_refresh=0 / rc_lookahead=50 / rc=2pass / mbtree=1 / bitrate=7500 / ratetol=1.0 / qcomp=0.50 / qpmin=6 / qpmax=51 / qpstep=4 / cplxblur=20.0 / qblur=0.5 / vbv_maxrate=11250 / vbv_bufsize=15000 / nal_hrd=vbr / filler=0 / ip_ratio=1.40 / aq=1:1.00
Default : Yes
Forced : No

Audio
ID : 2
Format : AAC
Format/Info : Advanced Audio Codec
Format profile : HE-AAC / LC
Format settings : Explicit
Codec ID : A_AAC-2
Duration : 21 min 24 s
Bit rate : 128 kb/s
Channel(s) : 2 channels
Channel positions : Front: L R
Sampling rate : 48.0 kHz / 24.0 kHz
Frame rate : 23.438 FPS (1024 SPF)
Compression mode : Lossy
Stream size : 19.6 MiB (2%)
Title : British English
Language : English
Default : No
Forced : No

Text #1
ID : 3
Format : UTF-8
Codec ID : S_TEXT/UTF8
Codec ID/Info : UTF-8 Plain Text
Duration : 1 min 45 s
Bit rate : 12 b/s
Count of elements : 4
Stream size : 169 Bytes (0%)
Title : English [Forced]
Language : English
Default : No
Forced : Yes

Text #2
ID : 4
Format : UTF-8
Codec ID : S_TEXT/UTF8
Codec ID/Info : UTF-8 Plain Text
Duration : 20 min 16 s
Bit rate : 107 b/s
Count of elements : 302
Stream size : 16.0 KiB (0%)
Title : English [Full]
Language : English
Default : No
Forced : No

Text #3
ID : 5
Format : UTF-8
Codec ID : S_TEXT/UTF8
Codec ID/Info : UTF-8 Plain Text
Duration : 20 min 16 s
Bit rate : 107 b/s
Count of elements : 302
Stream size : 16.0 KiB (0%)
Title : British English [Full]
Language : English
Default : No
Forced : No

Text #4
ID : 6
Format : UTF-8
Codec ID : S_TEXT/UTF8
Codec ID/Info : UTF-8 Plain Text
Duration : 20 min 41 s
Bit rate : 100 b/s
Count of elements : 310
Stream size : 15.3 KiB (0%)
Title : Castilian [Full]
Language : Spanish
Default : No
Forced : No

Text #5
ID : 7
Format : UTF-8
Codec ID : S_TEXT/UTF8
Codec ID/Info : UTF-8 Plain Text
Duration : 20 min 41 s
Bit rate : 106 b/s
Count of elements : 309
Stream size : 16.2 KiB (0%)
Title : Spanish [Full]
Language : Spanish
Default : No
Forced : No

Text #6
ID : 8
Format : UTF-8
Codec ID : S_TEXT/UTF8
Codec ID/Info : UTF-8 Plain Text
Duration : 20 min 41 s
Bit rate : 106 b/s
Count of elements : 304
Stream size : 16.1 KiB (0%)
Title : French [Full]
Language : French
Default : No
Forced : No

Text #7
ID : 9
Format : UTF-8
Codec ID : S_TEXT/UTF8
Codec ID/Info : UTF-8 Plain Text
Duration : 20 min 41 s
Bit rate : 114 b/s
Count of elements : 313
Stream size : 17.4 KiB (0%)
Title : German [Full]
Language : German
Default : No
Forced : No

Text #8
ID : 10
Format : UTF-8
Codec ID : S_TEXT/UTF8
Codec ID/Info : UTF-8 Plain Text
Duration : 20 min 41 s
Bit rate : 104 b/s
Count of elements : 301
Stream size : 15.8 KiB (0%)
Title : Italian [Full]
Language : Italian
Default : No
Forced : No

Text #9
ID : 11
Format : UTF-8
Codec ID : S_TEXT/UTF8
Codec ID/Info : UTF-8 Plain Text
Duration : 20 min 40 s
Bit rate : 114 b/s
Count of elements : 403
Stream size : 17.3 KiB (0%)
Title : Portuguese [Full]
Language : Portuguese
Default : No
Forced : No

Text #10
ID : 12
Format : UTF-8
Codec ID : S_TEXT/UTF8
Codec ID/Info : UTF-8 Plain Text
Duration : 20 min 41 s
Bit rate : 106 b/s
Count of elements : 302
Stream size : 16.2 KiB (0%)
Title : Brazilian Portuguese [Full]
Language : Portuguese
Default : No
Forced : No

Text #11
ID : 13
Format : UTF-8
Codec ID : S_TEXT/UTF8
Codec ID/Info : UTF-8 Plain Text
Duration : 20 min 41 s
Bit rate : 98 b/s
Count of elements : 304
Stream size : 15.0 KiB (0%)
Title : Polish [Full]
Language : Polish
Default : No
Forced : No

Text #12
ID : 14
Format : UTF-8
Codec ID : S_TEXT/UTF8
Codec ID/Info : UTF-8 Plain Text
Duration : 20 min 41 s
Bit rate : 110 b/s
Count of elements : 305
Stream size : 16.8 KiB (0%)
Title : Turkish [Full]
Language : Turkish
Default : No
Forced : No

Text #13
ID : 15
Format : UTF-8
Codec ID : S_TEXT/UTF8
Codec ID/Info : UTF-8 Plain Text
Duration : 20 min 41 s
Bit rate : 104 b/s
Count of elements : 262
Stream size : 15.8 KiB (0%)
Title : Swedish [Full]
Language : Swedish
Default : No
Forced : No

Text #14
ID : 16
Format : UTF-8
Codec ID : S_TEXT/UTF8
Codec ID/Info : UTF-8 Plain Text
Duration : 20 min 41 s
Bit rate : 98 b/s
Count of elements : 265
Stream size : 15.0 KiB (0%)
Title : Danish [Full]
Language : Danish
Default : No
Forced : No

Text #15
ID : 17
Format : UTF-8
Codec ID : S_TEXT/UTF8
Codec ID/Info : UTF-8 Plain Text
Duration : 20 min 41 s
Bit rate : 105 b/s
Count of elements : 264
Stream size : 16.0 KiB (0%)
Title : Finnish [Full]
Language : Finnish
Default : No
Forced : No

Text #16
ID : 18
Format : UTF-8
Codec ID : S_TEXT/UTF8
Codec ID/Info : UTF-8 Plain Text
Duration : 20 min 41 s
Bit rate : 84 b/s
Count of elements : 278
Stream size : 12.9 KiB (0%)
Title : Dutch [Full]
Language : Dutch
Default : No
Forced : No

Text #17
ID : 19
Format : UTF-8
Codec ID : S_TEXT/UTF8
Codec ID/Info : UTF-8 Plain Text
Duration : 20 min 41 s
Bit rate : 95 b/s
Count of elements : 251
Stream size : 14.5 KiB (0%)
Title : Norwegian [Full]
Language : Norwegian
Default : No
Forced : No

Text #18
ID : 20
Format : UTF-8
Codec ID : S_TEXT/UTF8
Codec ID/Info : UTF-8 Plain Text
Duration : 20 min 42 s
Bit rate : 171 b/s
Count of elements : 307
Stream size : 26.0 KiB (0%)
Title : Russian [Full]
Language : Russian
Default : No
Forced : No

Text #19
ID : 21
Format : UTF-8
Codec ID : S_TEXT/UTF8
Codec ID/Info : UTF-8 Plain Text
Duration : 20 min 41 s
Bit rate : 114 b/s
Count of elements : 306
Stream size : 17.4 KiB (0%)
Title : Hungarian [Full]
Language : Hungarian
Default : No
Forced : No

Text #20
ID : 22
Format : UTF-8
Codec ID : S_TEXT/UTF8
Codec ID/Info : UTF-8 Plain Text
Duration : 20 min 41 s
Bit rate : 98 b/s
Count of elements : 260
Stream size : 15.0 KiB (0%)
Title : Croatian [Full]
Language : Croatian
Default : No
Forced : No

Text #21
ID : 23
Format : UTF-8
Codec ID : S_TEXT/UTF8
Codec ID/Info : UTF-8 Plain Text
Duration : 20 min 41 s
Bit rate : 191 b/s
Count of elements : 339
Stream size : 29.1 KiB (0%)
Title : Greek [Full]
Language : Greek
Default : No
Forced : No

Text #22
ID : 24
Format : UTF-8
Codec ID : S_TEXT/UTF8
Codec ID/Info : UTF-8 Plain Text
Duration : 20 min 10 s
Bit rate : 147 b/s
Count of elements : 303
Stream size : 21.8 KiB (0%)
Title : Hebrew [Full]
Language : Hebrew
Default : No
Forced : No

Text #23
ID : 25
Format : UTF-8
Codec ID : S_TEXT/UTF8
Codec ID/Info : UTF-8 Plain Text
Duration : 20 min 41 s
Bit rate : 162 b/s
Count of elements : 308
Stream size : 24.6 KiB (0%)
Title : Arabic [Full]
Language : Arabic
Default : No
Forced : No

Text #24
ID : 26
Format : UTF-8
Codec ID : S_TEXT/UTF8
Codec ID/Info : UTF-8 Plain Text
Duration : 20 min 10 s
Bit rate : 118 b/s
Count of elements : 303
Stream size : 17.5 KiB (0%)
Title : Romanian [Full]
Language : Romanian
Default : No
Forced : No

Text #25
ID : 27
Format : UTF-8
Codec ID : S_TEXT/UTF8
Codec ID/Info : UTF-8 Plain Text
Duration : 20 min 41 s
Bit rate : 108 b/s
Count of elements : 295
Stream size : 16.4 KiB (0%)
Title : Czech [Full]
Language : Czech
Default : No
Forced : No

Text #26
ID : 28
Format : UTF-8
Codec ID : S_TEXT/UTF8
Codec ID/Info : UTF-8 Plain Text
Duration : 20 min 40 s
Bit rate : 111 b/s
Count of elements : 310
Stream size : 17.0 KiB (0%)
Title : Indonesian [Full]
Language : Indonesian
Default : No
Forced : No

Text #27
ID : 29
Format : UTF-8
Codec ID : S_TEXT/UTF8
Codec ID/Info : UTF-8 Plain Text
Duration : 20 min 41 s
Bit rate : 137 b/s
Count of elements : 306
Stream size : 20.8 KiB (0%)
Title : Vietnamese [Full]
Language : Vietnamese
Default : No
Forced : No

Text #28
ID : 30
Format : UTF-8
Codec ID : S_TEXT/UTF8
Codec ID/Info : UTF-8 Plain Text
Duration : 20 min 41 s
Bit rate : 234 b/s
Count of elements : 310
Stream size : 35.5 KiB (0%)
Title : Thai [Full]
Language : Thai
Default : No
Forced : No

Text #29
ID : 31
Format : UTF-8
Codec ID : S_TEXT/UTF8
Codec ID/Info : UTF-8 Plain Text
Duration : 20 min 41 s
Bit rate : 118 b/s
Count of elements : 329
Stream size : 17.9 KiB (0%)
Title : Korean [Full]
Language : Korean
Default : No
Forced : No

Text #30
ID : 32
Format : UTF-8
Codec ID : S_TEXT/UTF8
Codec ID/Info : UTF-8 Plain Text
Duration : 20 min 41 s
Bit rate : 84 b/s
Count of elements : 309
Stream size : 12.9 KiB (0%)
Title : Chinese (Simplified) [Full]
Language : Chinese
Default : No
Forced : No

Text #31
ID : 33
Format : UTF-8
Codec ID : S_TEXT/UTF8
Codec ID/Info : UTF-8 Plain Text
Duration : 20 min 41 s
Bit rate : 95 b/s
Count of elements : 307
Stream size : 14.5 KiB (0%)
Title : Chinese (Traditional) [Full]
Language : Chinese
Default : No
Forced : No

Text #32
ID : 34
Format : UTF-8
Codec ID : S_TEXT/UTF8
Codec ID/Info : UTF-8 Plain Text
Duration : 20 min 41 s
Bit rate : 111 b/s
Count of elements : 363
Stream size : 16.9 KiB (0%)
Title : Japanese [Full]
Language : Japanese
Default : No
Forced : No





History 101 S01E06


History 101 S01E06


History 101 S01E06


History 101 S01E06


History 101 S01E06

All episodes