Featured TV Shows


History 101 S01E08

Posted By: Tavaz
1080p (FullHD) / WEB-DL IMDb
History 101 S01E08

History 101 S01E08
WEB-DL | MKV | 1920x1080 | English | H264 @ 7500 kbps | E-AC-3 @ 128 kbps | 22 min 6 s | 1.15 GiB
Subtitles: ภาษาไทย, Hrvatski, Français, tiếng Việt, Español, Magyar, 日本語, עברית, 한국어, Русский, Ελληνικά, Nederlands, Dansk, Bahasa Indonesia, Bokmål, 中文, Suomi, Polski, Türkçe, English, Română, العربية, Deutsch, Svenska, Italiano, Português, Čeština
Genre: Documentary


Infographics and archival footage deliver bite-size history lessons on scientific breakthroughs, social movements and world-changing discoveries.

f9eb7876fb3348cf88758cc552810e44.mkv (1.2 GB)



General
Unique ID : 54494776516073202317540032838952941343 (0x28FF4FEBB771C7649FA142DDF6E9F71F)
Complete name : ./f9eb7876fb3348cf88758cc552810e44.mkv
Format : Matroska
Format version : Version 4 / Version 2
File size : 1.15 GiB
Duration : 22 min 6 s
Overall bit rate mode : Variable
Overall bit rate : 7 470 kb/s
Encoded date : UTC 2020-05-22 07:46:12
Writing application : mkvmerge v46.0.0 ('No Deeper Escape') 64-bit
Writing library : libebml v1.3.10 + libmatroska v1.5.2

Video
ID : 1
Format : AVC
Format/Info : Advanced Video Codec
Format profile : Main@L4
Format settings : CABAC / 3 Ref Frames
Format settings, CABAC : Yes
Format settings, RefFrames : 3 frames
Codec ID : V_MPEG4/ISO/AVC
Duration : 22 min 6 s
Bit rate mode : Variable
Bit rate : 7 500 kb/s
Maximum bit rate : 11.2 Mb/s
Width : 1 920 pixels
Height : 1 080 pixels
Display aspect ratio : 16:9
Frame rate mode : Constant
Frame rate : 25.000 FPS
Color space : YUV
Chroma subsampling : 4:2:0
Bit depth : 8 bits
Scan type : Progressive
Bits/(Pixel*Frame) : 0.145
Stream size : 1.11 GiB (96%)
Writing library : x264 core 148 r2717 0d2410d
Encoding settings : cabac=1 / ref=3 / deblock=1:0:0 / analyse=0x1:0x111 / me=umh / subme=10 / psy=1 / psy_rd=1.00:0.00 / mixed_ref=1 / me_range=24 / chroma_me=1 / trellis=2 / 8x8dct=0 / cqm=0 / deadzone=21,11 / fast_pskip=1 / chroma_qp_offset=-2 / threads=6 / lookahead_threads=1 / sliced_threads=0 / nr=0 / decimate=1 / interlaced=0 / bluray_compat=0 / stitchable=1 / constrained_intra=0 / bframes=2 / b_pyramid=0 / b_adapt=2 / b_bias=0 / direct=3 / weightb=1 / open_gop=0 / weightp=2 / keyint=250 / keyint_min=25 / scenecut=0 / intra_refresh=0 / rc_lookahead=50 / rc=2pass / mbtree=1 / bitrate=7500 / ratetol=1.0 / qcomp=0.50 / qpmin=6 / qpmax=51 / qpstep=4 / cplxblur=20.0 / qblur=0.5 / vbv_maxrate=11250 / vbv_bufsize=15000 / nal_hrd=vbr / filler=0 / ip_ratio=1.40 / aq=1:1.00
Default : Yes
Forced : No

Audio #1
ID : 2
Format : E-AC-3
Format/Info : Enhanced Audio Coding 3
Format settings, Endianness : Big
Codec ID : A_EAC3
Duration : 22 min 6 s
Bit rate mode : Constant
Bit rate : 128 kb/s
Channel(s) : 2 channels
Channel positions : Front: L R
Sampling rate : 48.0 kHz
Frame rate : 187.500 FPS (256 SPF)
Compression mode : Lossy
Stream size : 20.2 MiB (2%)
Language : English
Service kind : Complete Main
Default : Yes
Forced : No

Audio #2
ID : 3
Format : E-AC-3
Format/Info : Enhanced Audio Coding 3
Format settings, Endianness : Big
Codec ID : A_EAC3
Duration : 22 min 6 s
Bit rate mode : Constant
Bit rate : 128 kb/s
Channel(s) : 2 channels
Channel positions : Front: L R
Sampling rate : 48.0 kHz
Frame rate : 187.500 FPS (256 SPF)
Compression mode : Lossy
Stream size : 20.2 MiB (2%)
Language : English
Service kind : Complete Main
Default : No
Forced : No

Text #1
ID : 4
Format : UTF-8
Codec ID : S_TEXT/UTF8
Codec ID/Info : UTF-8 Plain Text
Duration : 14 s 600 ms
Bit rate : 117 b/s
Count of elements : 5
Stream size : 215 Bytes (0%)
Title : Forced
Language : English
Default : Yes
Forced : Yes

Text #2
ID : 5
Format : UTF-8
Codec ID : S_TEXT/UTF8
Codec ID/Info : UTF-8 Plain Text
Duration : 14 s 600 ms
Bit rate : 117 b/s
Count of elements : 5
Stream size : 215 Bytes (0%)
Title : Forced
Language : English
Default : No
Forced : No

Text #3
ID : 6
Format : UTF-8
Codec ID : S_TEXT/UTF8
Codec ID/Info : UTF-8 Plain Text
Duration : 20 min 59 s
Bit rate : 110 b/s
Count of elements : 316
Stream size : 17.0 KiB (0%)
Title : SDH
Language : English
Default : No
Forced : No

Text #4
ID : 7
Format : UTF-8
Codec ID : S_TEXT/UTF8
Codec ID/Info : UTF-8 Plain Text
Duration : 20 min 59 s
Bit rate : 110 b/s
Count of elements : 316
Stream size : 17.0 KiB (0%)
Title : SDH
Language : English
Default : No
Forced : No

Text #5
ID : 8
Format : UTF-8
Codec ID : S_TEXT/UTF8
Codec ID/Info : UTF-8 Plain Text
Duration : 21 min 23 s
Bit rate : 161 b/s
Count of elements : 322
Stream size : 25.3 KiB (0%)
Language : Arabic
Default : No
Forced : No

Text #6
ID : 9
Format : UTF-8
Codec ID : S_TEXT/UTF8
Codec ID/Info : UTF-8 Plain Text
Duration : 21 min 22 s
Bit rate : 108 b/s
Count of elements : 325
Stream size : 17.0 KiB (0%)
Language : Czech
Default : No
Forced : No

Text #7
ID : 10
Format : UTF-8
Codec ID : S_TEXT/UTF8
Codec ID/Info : UTF-8 Plain Text
Duration : 20 min 55 s
Bit rate : 98 b/s
Count of elements : 255
Stream size : 15.0 KiB (0%)
Language : Danish
Default : No
Forced : No

Text #8
ID : 11
Format : UTF-8
Codec ID : S_TEXT/UTF8
Codec ID/Info : UTF-8 Plain Text
Duration : 21 min 23 s
Bit rate : 111 b/s
Count of elements : 328
Stream size : 17.5 KiB (0%)
Language : German
Default : No
Forced : No

Text #9
ID : 12
Format : UTF-8
Codec ID : S_TEXT/UTF8
Codec ID/Info : UTF-8 Plain Text
Duration : 21 min 22 s
Bit rate : 194 b/s
Count of elements : 358
Stream size : 30.4 KiB (0%)
Language : Greek
Default : No
Forced : No

Text #10
ID : 13
Format : UTF-8
Codec ID : S_TEXT/UTF8
Codec ID/Info : UTF-8 Plain Text
Duration : 20 min 55 s
Bit rate : 112 b/s
Count of elements : 322
Stream size : 17.2 KiB (0%)
Title : Latin American
Language : Spanish
Default : No
Forced : No

Text #11
ID : 14
Format : UTF-8
Codec ID : S_TEXT/UTF8
Codec ID/Info : UTF-8 Plain Text
Duration : 21 min 22 s
Bit rate : 105 b/s
Count of elements : 322
Stream size : 16.6 KiB (0%)
Title : European
Language : Spanish
Default : No
Forced : No

Text #12
ID : 15
Format : UTF-8
Codec ID : S_TEXT/UTF8
Codec ID/Info : UTF-8 Plain Text
Duration : 20 min 55 s
Bit rate : 102 b/s
Count of elements : 259
Stream size : 15.7 KiB (0%)
Language : Finnish
Default : No
Forced : No

Text #13
ID : 16
Format : UTF-8
Codec ID : S_TEXT/UTF8
Codec ID/Info : UTF-8 Plain Text
Duration : 21 min 22 s
Bit rate : 119 b/s
Count of elements : 326
Stream size : 18.7 KiB (0%)
Language : French
Default : No
Forced : No

Text #14
ID : 17
Format : UTF-8
Codec ID : S_TEXT/UTF8
Codec ID/Info : UTF-8 Plain Text
Duration : 21 min 22 s
Bit rate : 143 b/s
Count of elements : 323
Stream size : 22.4 KiB (0%)
Language : Hebrew
Default : No
Forced : No

Text #15
ID : 18
Format : UTF-8
Codec ID : S_TEXT/UTF8
Codec ID/Info : UTF-8 Plain Text
Duration : 21 min 22 s
Bit rate : 96 b/s
Count of elements : 263
Stream size : 15.2 KiB (0%)
Language : Croatian
Default : No
Forced : No

Text #16
ID : 19
Format : UTF-8
Codec ID : S_TEXT/UTF8
Codec ID/Info : UTF-8 Plain Text
Duration : 21 min 22 s
Bit rate : 114 b/s
Count of elements : 327
Stream size : 17.9 KiB (0%)
Language : Hungarian
Default : No
Forced : No

Text #17
ID : 20
Format : UTF-8
Codec ID : S_TEXT/UTF8
Codec ID/Info : UTF-8 Plain Text
Duration : 21 min 22 s
Bit rate : 109 b/s
Count of elements : 324
Stream size : 17.1 KiB (0%)
Language : Indonesian
Default : No
Forced : No

Text #18
ID : 21
Format : UTF-8
Codec ID : S_TEXT/UTF8
Codec ID/Info : UTF-8 Plain Text
Duration : 21 min 22 s
Bit rate : 109 b/s
Count of elements : 321
Stream size : 17.2 KiB (0%)
Language : Italian
Default : No
Forced : No

Text #19
ID : 22
Format : UTF-8
Codec ID : S_TEXT/UTF8
Codec ID/Info : UTF-8 Plain Text
Duration : 21 min 22 s
Bit rate : 100 b/s
Count of elements : 347
Stream size : 15.8 KiB (0%)
Language : Japanese
Default : No
Forced : No

Text #20
ID : 23
Format : UTF-8
Codec ID : S_TEXT/UTF8
Codec ID/Info : UTF-8 Plain Text
Duration : 21 min 22 s
Bit rate : 111 b/s
Count of elements : 343
Stream size : 17.5 KiB (0%)
Language : Korean
Default : No
Forced : No

Text #21
ID : 24
Format : UTF-8
Codec ID : S_TEXT/UTF8
Codec ID/Info : UTF-8 Plain Text
Duration : 20 min 55 s
Bit rate : 98 b/s
Count of elements : 254
Stream size : 15.1 KiB (0%)
Language : Norwegian Bokmal
Default : No
Forced : No

Text #22
ID : 25
Format : UTF-8
Codec ID : S_TEXT/UTF8
Codec ID/Info : UTF-8 Plain Text
Duration : 21 min 22 s
Bit rate : 86 b/s
Count of elements : 294
Stream size : 13.6 KiB (0%)
Language : Dutch
Default : No
Forced : No

Text #23
ID : 26
Format : UTF-8
Codec ID : S_TEXT/UTF8
Codec ID/Info : UTF-8 Plain Text
Duration : 21 min 22 s
Bit rate : 102 b/s
Count of elements : 322
Stream size : 16.0 KiB (0%)
Language : Polish
Default : No
Forced : No

Text #24
ID : 27
Format : UTF-8
Codec ID : S_TEXT/UTF8
Codec ID/Info : UTF-8 Plain Text
Duration : 21 min 21 s
Bit rate : 118 b/s
Count of elements : 423
Stream size : 18.5 KiB (0%)
Title : European
Language : Portuguese
Default : No
Forced : No

Text #25
ID : 28
Format : UTF-8
Codec ID : S_TEXT/UTF8
Codec ID/Info : UTF-8 Plain Text
Duration : 21 min 22 s
Bit rate : 109 b/s
Count of elements : 326
Stream size : 17.1 KiB (0%)
Title : Brazilian
Language : Portuguese
Default : No
Forced : No

Text #26
ID : 29
Format : UTF-8
Codec ID : S_TEXT/UTF8
Codec ID/Info : UTF-8 Plain Text
Duration : 21 min 22 s
Bit rate : 117 b/s
Count of elements : 315
Stream size : 18.4 KiB (0%)
Language : Romanian
Default : No
Forced : No

Text #27
ID : 30
Format : UTF-8
Codec ID : S_TEXT/UTF8
Codec ID/Info : UTF-8 Plain Text
Duration : 21 min 23 s
Bit rate : 177 b/s
Count of elements : 334
Stream size : 27.7 KiB (0%)
Language : Russian
Default : No
Forced : No

Text #28
ID : 31
Format : UTF-8
Codec ID : S_TEXT/UTF8
Codec ID/Info : UTF-8 Plain Text
Duration : 20 min 55 s
Bit rate : 104 b/s
Count of elements : 278
Stream size : 16.1 KiB (0%)
Language : Swedish
Default : No
Forced : No

Text #29
ID : 32
Format : UTF-8
Codec ID : S_TEXT/UTF8
Codec ID/Info : UTF-8 Plain Text
Duration : 21 min 22 s
Bit rate : 249 b/s
Count of elements : 331
Stream size : 39.1 KiB (0%)
Language : Thai
Default : No
Forced : No

Text #30
ID : 33
Format : UTF-8
Codec ID : S_TEXT/UTF8
Codec ID/Info : UTF-8 Plain Text
Duration : 21 min 22 s
Bit rate : 113 b/s
Count of elements : 329
Stream size : 17.7 KiB (0%)
Language : Turkish
Default : No
Forced : No

Text #31
ID : 34
Format : UTF-8
Codec ID : S_TEXT/UTF8
Codec ID/Info : UTF-8 Plain Text
Duration : 21 min 22 s
Bit rate : 146 b/s
Count of elements : 321
Stream size : 22.9 KiB (0%)
Language : Vietnamese
Default : No
Forced : No

Text #32
ID : 35
Format : UTF-8
Codec ID : S_TEXT/UTF8
Codec ID/Info : UTF-8 Plain Text
Duration : 21 min 22 s
Bit rate : 80 b/s
Count of elements : 333
Stream size : 12.6 KiB (0%)
Title : Simplified
Language : Chinese
Default : No
Forced : No

Text #33
ID : 36
Format : UTF-8
Codec ID : S_TEXT/UTF8
Codec ID/Info : UTF-8 Plain Text
Duration : 21 min 22 s
Bit rate : 93 b/s
Count of elements : 332
Stream size : 14.7 KiB (0%)
Title : Traditional
Language : Chinese
Default : No
Forced : No





History 101 S01E08


History 101 S01E08


History 101 S01E08


History 101 S01E08


History 101 S01E08

All episodes