Index
# A B C D E F G H I J K L M N O P Q R S T U V W X Y Z
Tags
Language
Tags
July 2024
Su Mo Tu We Th Fr Sa
30 1 2 3 4 5 6
7 8 9 10 11 12 13
14 15 16 17 18 19 20
21 22 23 24 25 26 27
28 29 30 31 1 2 3

Featured TV Shows


Hitler and the Nazis: Evil on Trial S01E01

Posted By: MegoNecia
Hitler and the Nazis: Evil on Trial S01E01

Hitler and the Nazis: Evil on Trial S01E01
BRAW | 1280x720 | English | H264 @ 3560 kbps | E-AC-3 @ 384.0 kbps | 1 h 2 min | 1.71 GiB
Genre: Documentary


This gripping docuseries examines Adolf Hitler and the Nazis' rise, rule and reckoning from pre-WWII to the Holocaust to the Nuremberg trials.

Hitler.and.the.Nazis.Evil.on.Trial.S01E01.Origin.of.Evil.mp4 (1.7 GB)



General
Complete name : ./Hitler.and.the.Nazis.Evil.on.Trial.S01E01.Origin.of.Evil.mp4
Format : MPEG-4
Format profile : Base Media
Codec ID : isom (isom/iso2/avc1/mp41)
File size : 1.71 GiB
Duration : 1 h 2 min
Overall bit rate : 3 948 kb/s
Movie name : Origin of Evil
Tagged date : UTC 2024-06-05 07:50:22
Writing application : Lavf58.49.100

Video
ID : 1
Format : AVC
Format/Info : Advanced Video Codec
Format profile : High@L3.1
Format settings : CABAC / 2 Ref Frames
Format settings, CABAC : Yes
Format settings, Reference frames : 2 frames
Format settings, GOP : M=1, N=64
Codec ID : avc1
Codec ID/Info : Advanced Video Coding
Duration : 1 h 2 min
Bit rate : 3 560 kb/s
Width : 1 280 pixels
Height : 720 pixels
Display aspect ratio : 16:9
Frame rate mode : Variable
Frame rate : 23.976 (23976/1000) FPS
Minimum frame rate : 7.995 FPS
Maximum frame rate : 23.984 FPS
Original frame rate : 23.000 FPS
Color space : YUV
Chroma subsampling : 4:2:0
Bit depth : 8 bits
Scan type : Progressive
Bits/(Pixel*Frame) : 0.161
Stream size : 1.54 GiB (90%)
Codec configuration box : avcC

Audio
ID : 2
Format : E-AC-3
Format/Info : Enhanced AC-3
Commercial name : Dolby Digital Plus
Codec ID : ec-3
Duration : 1 h 2 min
Bit rate mode : Constant
Bit rate : 384 kb/s
Channel(s) : 6 channels
Channel layout : L R C LFE Ls Rs
Sampling rate : 48.0 kHz
Frame rate : 31.250 FPS (1536 SPF)
Compression mode : Lossy
Stream size : 171 MiB (10%)
Title : English [Original] DD+ 5.1 HQ
Language : English
Service kind : Complete Main
Default : Yes
Alternate group : 1





Hitler and the Nazis: Evil on Trial S01E01


Hitler and the Nazis: Evil on Trial S01E01


Hitler and the Nazis: Evil on Trial S01E01


Hitler and the Nazis: Evil on Trial S01E01


Hitler and the Nazis: Evil on Trial S01E01

All episodes