Featured TV Shows


Hold the Sunset S01E00

Posted By: Tavaz
1080p (FullHD) / HDTV IMDb
Hold the Sunset S01E00

Hold the Sunset S01E00
HDTV | MKV | 1920x1080 | English | H264 @ 3779 kbps | AC-3 @ 192 kbps | 26 min 10 s | 759 MiB
Genre: Comedy

Edith's dreams of retirement to the sun with her long-term suitor Phil are shattered when her 50-year-old son Roger arrives home, seeking to recapture his boyhood happiness.

23633a0d53cc489ca7d12be2f081913c.mkv (758.8 MB)



General
Unique ID : 0 (0x0)
Complete name : ./23633a0d53cc489ca7d12be2f081913c.mkv
Format : Matroska
Format version : Version 4 / Version 2
File size : 759 MiB
Duration : 26 min 10 s
Overall bit rate : 4 052 kb/s
Encoded date : UTC 2010-02-22 21:41:29
Writing application : no_variable_data
Writing library : no_variable_data

Video
ID : 1
Format : AVC
Format/Info : Advanced Video Codec
Format profile : High@L4
Format settings : CABAC / 4 Ref Frames
Format settings, CABAC : Yes
Format settings, RefFrames : 4 frames
Format settings, GOP : M=8, N=24
Codec ID : V_MPEG4/ISO/AVC
Duration : 26 min 10 s
Bit rate : 3 779 kb/s
Width : 1 920 pixels
Height : 1 080 pixels
Display aspect ratio : 16:9
Frame rate mode : Constant
Frame rate : 25.000 FPS
Standard : Component
Color space : YUV
Chroma subsampling : 4:2:0
Bit depth : 8 bits
Scan type : MBAFF
Scan type, store method : Interleaved fields
Scan order : Top Field First
Bits/(Pixel*Frame) : 0.073
Stream size : 708 MiB (93%)
Language : English
Default : Yes
Forced : No
Color range : Limited
Color primaries : BT.709
Transfer characteristics : BT.709
Matrix coefficients : BT.709

Audio
ID : 2
Format : AC-3
Format/Info : Audio Coding 3
Format settings, Endianness : Big
Codec ID : A_AC3
Duration : 26 min 10 s
Bit rate mode : Constant
Bit rate : 192 kb/s
Channel(s) : 2 channels
Channel positions : Front: L R
Sampling rate : 48.0 kHz
Frame rate : 31.250 FPS (1536 SPF)
Bit depth : 16 bits
Compression mode : Lossy
Stream size : 36.0 MiB (5%)
Language : English
Service kind : Complete Main
Default : Yes
Forced : No





Hold the Sunset S01E00


Hold the Sunset S01E00


Hold the Sunset S01E00


Hold the Sunset S01E00


Hold the Sunset S01E00

All episodes