Featured TV Shows


Hold the Sunset S02E01

Posted By: Tavaz
720p (HD) / WEB-DL IMDb
Hold the Sunset S02E01

Hold the Sunset S02E01
WEB-DL | MKV | 1280x720 | English | H264 @ 4992 kbps | AAC @ 128 kbps | 27 min 22 s | 1 003 MiB
Subtitles: English
Genre: Comedy


Edith's dreams of retirement to the sun with her long-term suitor Phil are shattered when her 50-year-old son Roger arrives home, seeking to recapture his boyhood happiness.

07b862f7b4dc4b7fa64cf64cf696d446.mkv (1003.1 MB)



General
Unique ID : 94134702294254276717569922285924089076 (0x46D1AF276ED226F8C3F8E4FC2FA97CF4)
Complete name : ./07b862f7b4dc4b7fa64cf64cf696d446.mkv
Format : Matroska
Format version : Version 4 / Version 2
File size : 1 003 MiB
Duration : 27 min 22 s
Overall bit rate : 5 125 kb/s
Encoded date : UTC 2019-08-02 20:39:48
Writing application : mkvmerge v35.0.0 ('All The Love In The World') 64-bit
Writing library : libebml v1.3.9 + libmatroska v1.5.2

Video
ID : 1
Format : AVC
Format/Info : Advanced Video Codec
Format profile : High@L3.2
Format settings : CABAC / 4 Ref Frames
Format settings, CABAC : Yes
Format settings, RefFrames : 4 frames
Codec ID : V_MPEG4/ISO/AVC
Duration : 27 min 22 s
Bit rate : 4 993 kb/s
Width : 1 280 pixels
Height : 720 pixels
Display aspect ratio : 16:9
Frame rate mode : Constant
Frame rate : 50.000 FPS
Color space : YUV
Chroma subsampling : 4:2:0
Bit depth : 8 bits
Scan type : Progressive
Bits/(Pixel*Frame) : 0.108
Stream size : 977 MiB (97%)
Default : Yes
Forced : No
Color range : Limited
Color primaries : BT.709
Transfer characteristics : BT.709
Matrix coefficients : BT.709

Audio
ID : 2
Format : AAC
Format/Info : Advanced Audio Codec
Format profile : LC
Codec ID : A_AAC-2
Duration : 27 min 22 s
Bit rate : 128 kb/s
Channel(s) : 2 channels
Channel positions : Front: L R
Sampling rate : 48.0 kHz
Frame rate : 46.875 FPS (1024 SPF)
Compression mode : Lossy
Delay relative to video : -20 ms
Stream size : 25.1 MiB (2%)
Language : English
Default : Yes
Forced : No

Text
ID : 3
Format : UTF-8
Codec ID : S_TEXT/UTF8
Codec ID/Info : UTF-8 Plain Text
Duration : 26 min 48 s
Bit rate : 196 b/s
Count of elements : 525
Stream size : 38.6 KiB (0%)
Language : English
Default : No
Forced : No





Hold the Sunset S02E01


Hold the Sunset S02E01


Hold the Sunset S02E01


Hold the Sunset S02E01


Hold the Sunset S02E01

All episodes