Index
# A B C D E F G H I J K L M N O P Q R S T U V W Y Z
Tags
Language
Tags

Featured TV Shows


Hold Tight S01E05

Posted By: Tavaz
720p (HD) / WEB-DL IMDb
Hold Tight S01E05

Hold Tight S01E05
WEB-DL | MKV | 1280x720 | Polski / English | H264 @ 1423 kbps | E-AC-3 @ 768 kbps | 48 min 6 s | 962 MiB
Subtitles: ภาษาไทย, Hrvatski, Français, tiếng Việt, Español, Magyar, 日本語, עברית, 한국어, Русский, Ελληνικά, Nederlands, Dansk, Bahasa Indonesia, Bokmål, 中文, Suomi, Polski, Türkçe, English, Română, العربية, Deutsch, Українська, Svenska, Italiano, Português, Čeština
Genre: Thriller, Drama, Mystery, Crime


When a young man goes missing soon after his friend dies, life in a tight-knit, affluent Warsaw suburb slowly unravels, exposing secrets and lies.

074f522cbd514ea68549fe3da2b96b06.mkv (962.4 MB)



General
Unique ID : 161446803392502537548316057727904435213 (0x797585F7820A79BB70739AF63DF2CC0D)
Complete name : ./074f522cbd514ea68549fe3da2b96b06.mkv
Format : Matroska
Format version : Version 4 / Version 2
File size : 962 MiB
Duration : 48 min 6 s
Overall bit rate mode : Variable
Overall bit rate : 2 797 kb/s
Writing application : mkvmerge v67.0.0 ('Under Stars') 64-bit
Writing library : libebml v1.4.2 + libmatroska v1.6.4

Video
ID : 1
Format : AVC
Format/Info : Advanced Video Codec
Format profile : Main@L3.1
Format settings : CABAC / 3 Ref Frames
Format settings, CABAC : Yes
Format settings, RefFrames : 3 frames
Codec ID : V_MPEG4/ISO/AVC
Duration : 48 min 6 s
Bit rate mode : Variable
Bit rate : 1 423 kb/s
Maximum bit rate : 2 940 kb/s
Width : 1 280 pixels
Height : 720 pixels
Display aspect ratio : 16:9
Frame rate mode : Constant
Frame rate : 25.000 FPS
Color space : YUV
Chroma subsampling : 4:2:0
Bit depth : 8 bits
Scan type : Progressive
Bits/(Pixel*Frame) : 0.062
Stream size : 476 MiB (49%)
Writing library : x264 core 148 r2727 7d026e8
Encoding settings : cabac=1 / ref=3 / deblock=1:0:0 / analyse=0x1:0x111 / me=umh / subme=10 / psy=1 / psy_rd=1.00:0.00 / mixed_ref=1 / me_range=24 / chroma_me=1 / trellis=2 / 8x8dct=0 / cqm=0 / deadzone=21,11 / fast_pskip=1 / chroma_qp_offset=-2 / threads=8 / lookahead_threads=1 / sliced_threads=0 / nr=0 / decimate=1 / interlaced=0 / bluray_compat=0 / stitchable=1 / constrained_intra=0 / bframes=2 / b_pyramid=0 / b_adapt=2 / b_bias=0 / direct=3 / weightb=1 / open_gop=0 / weightp=2 / keyint=250 / keyint_min=25 / scenecut=0 / intra_refresh=0 / rc_lookahead=50 / rc=2pass / mbtree=1 / bitrate=1423 / ratetol=1.0 / qcomp=0.50 / qpmin=6 / qpmax=51 / qpstep=4 / cplxblur=20.0 / qblur=0.5 / vbv_maxrate=2940 / vbv_bufsize=3920 / nal_hrd=vbr / filler=0 / ip_ratio=1.40 / aq=1:1.00
Default : Yes
Forced : No

Audio #1
ID : 2
Format : E-AC-3
Format/Info : Enhanced Audio Coding 3
Format profile : E-AC-3+Atmos / E-AC-3
Format settings, Endianness : Big
Codec ID : A_EAC3
Duration : 48 min 6 s
Bit rate mode : Constant
Bit rate : 768 kb/s
Channel(s) : 15 objects / 6 channels
Channel positions : 15 objects / Front: L C R, Side: L R, LFE
Sampling rate : 48.0 kHz
Frame rate : 187.500 FPS (256 SPF)
Compression mode : Lossy
Stream size : 264 MiB (27%)
Language : Polish
Service kind : Complete Main
Default : Yes
Forced : No

Audio #2
ID : 3
Format : E-AC-3
Format/Info : Enhanced Audio Coding 3
Format settings, Endianness : Big
Codec ID : A_EAC3
Duration : 48 min 6 s
Bit rate mode : Constant
Bit rate : 640 kb/s
Channel(s) : 6 channels
Channel positions : Front: L C R, Side: L R, LFE
Sampling rate : 48.0 kHz
Frame rate : 187.500 FPS (256 SPF)
Compression mode : Lossy
Stream size : 220 MiB (23%)
Language : English
Service kind : Complete Main
Default : No
Forced : No

Text #1
ID : 4
Format : UTF-8
Codec ID : S_TEXT/UTF8
Codec ID/Info : UTF-8 Plain Text
Duration : 43 min 4 s
Bit rate : 57 b/s
Count of elements : 574
Stream size : 18.1 KiB (0%)
Title : SDH
Language : Polish
Default : No
Forced : No

Text #2
ID : 5
Format : UTF-8
Codec ID : S_TEXT/UTF8
Codec ID/Info : UTF-8 Plain Text
Duration : 46 min 50 s
Bit rate : 78 b/s
Count of elements : 491
Stream size : 26.9 KiB (0%)
Language : Arabic
Default : No
Forced : No

Text #3
ID : 6
Format : UTF-8
Codec ID : S_TEXT/UTF8
Codec ID/Info : UTF-8 Plain Text
Duration : 46 min 50 s
Bit rate : 40 b/s
Count of elements : 502
Stream size : 13.9 KiB (0%)
Language : Czech
Default : No
Forced : No

Text #4
ID : 7
Format : UTF-8
Codec ID : S_TEXT/UTF8
Codec ID/Info : UTF-8 Plain Text
Duration : 46 min 50 s
Bit rate : 39 b/s
Count of elements : 477
Stream size : 13.5 KiB (0%)
Language : Danish
Default : No
Forced : No

Text #5
ID : 8
Format : UTF-8
Codec ID : S_TEXT/UTF8
Codec ID/Info : UTF-8 Plain Text
Duration : 46 min 50 s
Bit rate : 45 b/s
Count of elements : 489
Stream size : 15.4 KiB (0%)
Language : German
Default : No
Forced : No

Text #6
ID : 9
Format : UTF-8
Codec ID : S_TEXT/UTF8
Codec ID/Info : UTF-8 Plain Text
Duration : 46 min 50 s
Bit rate : 72 b/s
Count of elements : 491
Stream size : 24.8 KiB (0%)
Language : Greek
Default : No
Forced : No

Text #7
ID : 10
Format : UTF-8
Codec ID : S_TEXT/UTF8
Codec ID/Info : UTF-8 Plain Text
Duration : 46 min 50 s
Bit rate : 43 b/s
Count of elements : 498
Stream size : 14.8 KiB (0%)
Language : English
Default : No
Forced : No

Text #8
ID : 11
Format : UTF-8
Codec ID : S_TEXT/UTF8
Codec ID/Info : UTF-8 Plain Text
Duration : 46 min 50 s
Bit rate : 41 b/s
Count of elements : 488
Stream size : 14.2 KiB (0%)
Title : Latin American
Language : Spanish
Default : No
Forced : No

Text #9
ID : 12
Format : UTF-8
Codec ID : S_TEXT/UTF8
Codec ID/Info : UTF-8 Plain Text
Duration : 46 min 50 s
Bit rate : 38 b/s
Count of elements : 486
Stream size : 13.3 KiB (0%)
Language : Spanish
Default : No
Forced : No

Text #10
ID : 13
Format : UTF-8
Codec ID : S_TEXT/UTF8
Codec ID/Info : UTF-8 Plain Text
Duration : 46 min 50 s
Bit rate : 39 b/s
Count of elements : 506
Stream size : 13.7 KiB (0%)
Language : Finnish
Default : No
Forced : No

Text #11
ID : 14
Format : UTF-8
Codec ID : S_TEXT/UTF8
Codec ID/Info : UTF-8 Plain Text
Duration : 46 min 50 s
Bit rate : 40 b/s
Count of elements : 482
Stream size : 13.8 KiB (0%)
Language : French
Default : No
Forced : No

Text #12
ID : 15
Format : UTF-8
Codec ID : S_TEXT/UTF8
Codec ID/Info : UTF-8 Plain Text
Duration : 46 min 50 s
Bit rate : 67 b/s
Count of elements : 492
Stream size : 23.1 KiB (0%)
Language : Hebrew
Default : No
Forced : No

Text #13
ID : 16
Format : UTF-8
Codec ID : S_TEXT/UTF8
Codec ID/Info : UTF-8 Plain Text
Duration : 46 min 50 s
Bit rate : 39 b/s
Count of elements : 488
Stream size : 13.4 KiB (0%)
Language : Croatian
Default : No
Forced : No

Text #14
ID : 17
Format : UTF-8
Codec ID : S_TEXT/UTF8
Codec ID/Info : UTF-8 Plain Text
Duration : 46 min 50 s
Bit rate : 40 b/s
Count of elements : 492
Stream size : 14.0 KiB (0%)
Language : Hungarian
Default : No
Forced : No

Text #15
ID : 18
Format : UTF-8
Codec ID : S_TEXT/UTF8
Codec ID/Info : UTF-8 Plain Text
Duration : 46 min 50 s
Bit rate : 41 b/s
Count of elements : 490
Stream size : 14.4 KiB (0%)
Language : Indonesian
Default : No
Forced : No

Text #16
ID : 19
Format : UTF-8
Codec ID : S_TEXT/UTF8
Codec ID/Info : UTF-8 Plain Text
Duration : 46 min 50 s
Bit rate : 40 b/s
Count of elements : 509
Stream size : 14.0 KiB (0%)
Language : Italian
Default : No
Forced : No

Text #17
ID : 20
Format : UTF-8
Codec ID : S_TEXT/UTF8
Codec ID/Info : UTF-8 Plain Text
Duration : 46 min 50 s
Bit rate : 43 b/s
Count of elements : 515
Stream size : 15.1 KiB (0%)
Language : Japanese
Default : No
Forced : No

Text #18
ID : 21
Format : UTF-8
Codec ID : S_TEXT/UTF8
Codec ID/Info : UTF-8 Plain Text
Duration : 46 min 50 s
Bit rate : 53 b/s
Count of elements : 490
Stream size : 18.5 KiB (0%)
Language : Korean
Default : No
Forced : No

Text #19
ID : 22
Format : UTF-8
Codec ID : S_TEXT/UTF8
Codec ID/Info : UTF-8 Plain Text
Duration : 46 min 50 s
Bit rate : 40 b/s
Count of elements : 491
Stream size : 14.0 KiB (0%)
Language : Malay
Default : No
Forced : No

Text #20
ID : 23
Format : UTF-8
Codec ID : S_TEXT/UTF8
Codec ID/Info : UTF-8 Plain Text
Duration : 42 min 55 s
Bit rate : 43 b/s
Count of elements : 484
Stream size : 13.7 KiB (0%)
Language : Norwegian Bokmal
Default : No
Forced : No

Text #21
ID : 24
Format : UTF-8
Codec ID : S_TEXT/UTF8
Codec ID/Info : UTF-8 Plain Text
Duration : 46 min 50 s
Bit rate : 40 b/s
Count of elements : 437
Stream size : 13.8 KiB (0%)
Language : Dutch
Default : No
Forced : No

Text #22
ID : 25
Format : UTF-8
Codec ID : S_TEXT/UTF8
Codec ID/Info : UTF-8 Plain Text
Duration : 46 min 50 s
Bit rate : 42 b/s
Count of elements : 488
Stream size : 14.6 KiB (0%)
Title : Brazilian
Language : Portuguese
Default : No
Forced : No

Text #23
ID : 26
Format : UTF-8
Codec ID : S_TEXT/UTF8
Codec ID/Info : UTF-8 Plain Text
Duration : 46 min 50 s
Bit rate : 42 b/s
Count of elements : 493
Stream size : 14.4 KiB (0%)
Language : Portuguese
Default : No
Forced : No

Text #24
ID : 27
Format : UTF-8
Codec ID : S_TEXT/UTF8
Codec ID/Info : UTF-8 Plain Text
Duration : 46 min 50 s
Bit rate : 44 b/s
Count of elements : 478
Stream size : 15.2 KiB (0%)
Language : Romanian
Default : No
Forced : No

Text #25
ID : 28
Format : UTF-8
Codec ID : S_TEXT/UTF8
Codec ID/Info : UTF-8 Plain Text
Duration : 46 min 50 s
Bit rate : 68 b/s
Count of elements : 490
Stream size : 23.5 KiB (0%)
Language : Russian
Default : No
Forced : No

Text #26
ID : 29
Format : UTF-8
Codec ID : S_TEXT/UTF8
Codec ID/Info : UTF-8 Plain Text
Duration : 46 min 50 s
Bit rate : 40 b/s
Count of elements : 440
Stream size : 14.0 KiB (0%)
Language : Swedish
Default : No
Forced : No

Text #27
ID : 30
Format : UTF-8
Codec ID : S_TEXT/UTF8
Codec ID/Info : UTF-8 Plain Text
Duration : 46 min 50 s
Bit rate : 107 b/s
Count of elements : 493
Stream size : 37.0 KiB (0%)
Language : Thai
Default : No
Forced : No

Text #28
ID : 31
Format : UTF-8
Codec ID : S_TEXT/UTF8
Codec ID/Info : UTF-8 Plain Text
Duration : 46 min 50 s
Bit rate : 41 b/s
Count of elements : 467
Stream size : 14.3 KiB (0%)
Language : Turkish
Default : No
Forced : No

Text #29
ID : 32
Format : UTF-8
Codec ID : S_TEXT/UTF8
Codec ID/Info : UTF-8 Plain Text
Duration : 46 min 50 s
Bit rate : 66 b/s
Count of elements : 486
Stream size : 22.7 KiB (0%)
Language : Ukrainian
Default : No
Forced : No

Text #30
ID : 33
Format : UTF-8
Codec ID : S_TEXT/UTF8
Codec ID/Info : UTF-8 Plain Text
Duration : 46 min 50 s
Bit rate : 59 b/s
Count of elements : 482
Stream size : 20.4 KiB (0%)
Language : Vietnamese
Default : No
Forced : No

Text #31
ID : 34
Format : UTF-8
Codec ID : S_TEXT/UTF8
Codec ID/Info : UTF-8 Plain Text
Duration : 46 min 50 s
Bit rate : 46 b/s
Count of elements : 512
Stream size : 15.8 KiB (0%)
Title : Simplified
Language : Chinese
Default : No
Forced : No

Text #32
ID : 35
Format : UTF-8
Codec ID : S_TEXT/UTF8
Codec ID/Info : UTF-8 Plain Text
Duration : 46 min 50 s
Bit rate : 46 b/s
Count of elements : 517
Stream size : 15.9 KiB (0%)
Title : Traditional
Language : Chinese
Default : No
Forced : No





Hold Tight S01E05


Hold Tight S01E05


Hold Tight S01E05


Hold Tight S01E05


Hold Tight S01E05

All episodes