Index
# A B C D E F G H I J K L M N O P Q R S T U V W X Y Z
Tags
Language
Tags
May 2024
Su Mo Tu We Th Fr Sa
28 29 30 1 2 3 4
5 6 7 8 9 10 11
12 13 14 15 16 17 18
19 20 21 22 23 24 25
26 27 28 29 30 31 1

Featured TV Shows


Between S01E01

Posted By: Tavaz
720p (HD) / WEBRip IMDb
Between S01E01

Between S01E01
WEBRip | MKV | 1280x720 | English | H264 @ 2524 kbps | AAC @ 192 kbps | 44 min 7 s | 858 MiB
Genre: Drama


Between is the story of a town under siege from a mysterious disease that has wiped out everybody except those 21 years old and under. The series explores the power vacuum that results when a government has quarantined a 10-mile diameter area and left the inhabitants to fend for themselves.

c9de97aa58dc43caa76faf5729ff5dd7.mkv (858.0 MB)



General
Unique ID : 197002835113446179837469777812409677448 (0x94355DAD6B4F853339A8987F09DDF688)
Complete name : ./c9de97aa58dc43caa76faf5729ff5dd7.mkv
Format : Matroska
Format version : Version 4 / Version 2
File size : 858 MiB
Duration : 44 min 7 s
Overall bit rate : 2 719 kb/s
Encoded date : UTC 2022-06-15 18:32:46
Writing application : mkvmerge v65.0.0 ('Too Much') 64-bit
Writing library : libebml v1.4.2 + libmatroska v1.6.4

Video
ID : 1
Format : AVC
Format/Info : Advanced Video Codec
Format profile : Main@L3.1
Format settings : CABAC / 4 Ref Frames
Format settings, CABAC : Yes
Format settings, RefFrames : 4 frames
Codec ID : V_MPEG4/ISO/AVC
Duration : 44 min 7 s
Bit rate : 2 525 kb/s
Width : 1 280 pixels
Height : 720 pixels
Display aspect ratio : 16:9
Frame rate mode : Constant
Frame rate : 25.000 FPS
Color space : YUV
Chroma subsampling : 4:2:0
Bit depth : 8 bits
Scan type : Progressive
Bits/(Pixel*Frame) : 0.110
Stream size : 797 MiB (93%)
Writing library : Zencoder Video Encoding System
Default : Yes
Forced : No
Color range : Limited
Color primaries : BT.709
Transfer characteristics : BT.709
Matrix coefficients : BT.709

Audio
ID : 2
Format : AAC
Format/Info : Advanced Audio Codec
Format profile : LC
Codec ID : A_AAC-2
Duration : 44 min 7 s
Bit rate : 192 kb/s
Channel(s) : 2 channels
Channel positions : Front: L R
Sampling rate : 48.0 kHz
Frame rate : 46.875 FPS (1024 SPF)
Compression mode : Lossy
Stream size : 60.5 MiB (7%)
Language : English
Default : Yes
Forced : No





Between S01E01


Between S01E01


Between S01E01


Between S01E01


Between S01E01

All episodes