Index
# A B C D E F G H I J K L M N O P Q R S T U V W X Y Z
Tags
Language
Tags
May 2024
Su Mo Tu We Th Fr Sa
28 29 30 1 2 3 4
5 6 7 8 9 10 11
12 13 14 15 16 17 18
19 20 21 22 23 24 25
26 27 28 29 30 31 1

Featured TV Shows


Between S01E02

Posted By: Tavaz
720p (HD) / WEBRip IMDb
Between S01E02

Between S01E02
WEBRip | MKV | 1280x720 | English | H264 @ 2317 kbps | AAC @ 192 kbps | 44 min 9 s | 793 MiB
Genre: Drama


Between is the story of a town under siege from a mysterious disease that has wiped out everybody except those 21 years old and under. The series explores the power vacuum that results when a government has quarantined a 10-mile diameter area and left the inhabitants to fend for themselves.

2bee9d6c446246728453a313a24691fc.mkv (793.4 MB)



General
Unique ID : 260128721925337450985441039865973923435 (0xC3B2F830D504D550F0A9955DBD2D5E6B)
Complete name : ./2bee9d6c446246728453a313a24691fc.mkv
Format : Matroska
Format version : Version 4 / Version 2
File size : 793 MiB
Duration : 44 min 9 s
Overall bit rate mode : Variable
Overall bit rate : 2 512 kb/s
Encoded date : UTC 2022-06-21 18:35:21
Writing application : mkvmerge v65.0.0 ('Too Much') 64-bit
Writing library : libebml v1.4.2 + libmatroska v1.6.4

Video
ID : 1
Format : AVC
Format/Info : Advanced Video Codec
Format profile : Main@L3.1
Format settings : CABAC / 4 Ref Frames
Format settings, CABAC : Yes
Format settings, RefFrames : 4 frames
Codec ID : V_MPEG4/ISO/AVC
Duration : 44 min 9 s
Bit rate mode : Variable
Bit rate : 2 318 kb/s
Maximum bit rate : 3 785 kb/s
Width : 1 280 pixels
Height : 720 pixels
Display aspect ratio : 16:9
Frame rate mode : Constant
Frame rate : 25.000 FPS
Color space : YUV
Chroma subsampling : 4:2:0
Bit depth : 8 bits
Scan type : Progressive
Bits/(Pixel*Frame) : 0.101
Stream size : 732 MiB (92%)
Writing library : Zencoder Video Encoding System
Default : Yes
Forced : No
Color range : Limited
Color primaries : BT.709
Transfer characteristics : BT.709
Matrix coefficients : BT.709

Audio
ID : 2
Format : AAC
Format/Info : Advanced Audio Codec
Format profile : LC
Codec ID : A_AAC-2
Duration : 44 min 9 s
Bit rate : 192 kb/s
Channel(s) : 2 channels
Channel positions : Front: L R
Sampling rate : 48.0 kHz
Frame rate : 46.875 FPS (1024 SPF)
Compression mode : Lossy
Stream size : 60.6 MiB (8%)
Language : English
Default : Yes
Forced : No





Between S01E02


Between S01E02


Between S01E02


Between S01E02


Between S01E02

All episodes