Index
# A B C D E F G H I J K L M N O P Q R S T U V W Y Z
Tags
Language
Tags
December 2022
Su Mo Tu We Th Fr Sa
27 28 29 30 1 2 3
4 5 6 7 8 9 10
11 12 13 14 15 16 17
18 19 20 21 22 23 24
25 26 27 28 29 30 31

Featured TV Shows


Living the Dream 2017-12-05

Posted By: Tavaz
1080p (FullHD) / WEB-DL IMDb
Living the Dream 2017-12-05

Living the Dream 2017-12-05
WEB-DL | MKV | 1920x1080 | English | H264 @ 4200 kbps | AAC @ 127 kbps | 21 min 33 s | 661 MiB
Subtitles: English
Genre: Komedie, Drama

A British family, the Pembertons, decide it’s time to leave rainy England and move to the sunshine state of Florida. They've bought an RV Park with plans for a booming family-run business, but it soon turns out that they are not going to be living the dream they hoped.

3e048f68ab134109a9c03f1e974b6e1a.mkv (661.3 MB)



General
Unique ID : 205082074868564177814194579109580209998 (0x9A495EF39B50CC979581F67C53D57F4E)
Complete name : ./3e048f68ab134109a9c03f1e974b6e1a.mkv
Format : Matroska
Format version : Version 4 / Version 2
File size : 661 MiB
Duration : 21 min 33 s
Overall bit rate : 4 289 kb/s
Encoded date : UTC 2017-12-09 22:16:20
Writing application : mkvmerge v18.0.0 ('Apricity') 64-bit
Writing library : libebml v1.3.5 + libmatroska v1.4.8

Video
ID : 1
Format : AVC
Format/Info : Advanced Video Codec
Format profile : High@L4
Format settings : CABAC / 1 Ref Frames
Format settings, CABAC : Yes
Format settings, RefFrames : 1 frame
Codec ID : V_MPEG4/ISO/AVC
Duration : 21 min 33 s
Bit rate : 4 200 kb/s
Width : 1 920 pixels
Height : 1 080 pixels
Display aspect ratio : 16:9
Frame rate mode : Constant
Frame rate : 29.970 (30000/1001) FPS
Color space : YUV
Chroma subsampling : 4:2:0
Bit depth : 8 bits
Scan type : Progressive
Bits/(Pixel*Frame) : 0.068
Stream size : 641 MiB (97%)
Writing library : x264 core 120
Encoding settings : cabac=1 / ref=1 / deblock=1:0:0 / analyse=0x3:0x113 / me=hex / subme=6 / psy=1 / psy_rd=1.00:0.00 / mixed_ref=0 / me_range=16 / chroma_me=0 / trellis=1 / 8x8dct=1 / cqm=0 / deadzone=21,11 / fast_pskip=1 / chroma_qp_offset=-2 / threads=8 / sliced_threads=0 / nr=0 / decimate=1 / interlaced=0 / bluray_compat=0 / constrained_intra=0 / bframes=0 / weightp=2 / keyint=90 / keyint_min=25 / scenecut=0 / intra_refresh=0 / rc_lookahead=0 / rc=2pass / mbtree=0 / bitrate=4200 / ratetol=1.0 / qcomp=0.60 / qpmin=10 / qpmax=51 / qpstep=4 / cplxblur=20.0 / qblur=0.5 / vbv_maxrate=4200 / vbv_bufsize=1050 / nal_hrd=none / ip_ratio=1.40 / aq=1:1.00
Default : Yes
Forced : No

Audio
ID : 2
Format : AAC
Format/Info : Advanced Audio Codec
Format profile : LC
Codec ID : A_AAC-2
Duration : 21 min 33 s
Bit rate : 128 kb/s
Channel(s) : 2 channels
Channel positions : Front: L R
Sampling rate : 44.1 kHz
Frame rate : 43.066 FPS (1024 SPF)
Compression mode : Lossy
Stream size : 19.7 MiB (3%)
Language : English
Default : Yes
Forced : No

Text
ID : 3
Format : UTF-8
Codec ID : S_TEXT/UTF8
Codec ID/Info : UTF-8 Plain Text
Duration : 21 min 29 s
Bit rate : 136 b/s
Count of elements : 595
Stream size : 21.4 KiB (0%)
Language : English
Default : No
Forced : No





Living the Dream 2017-12-05


Living the Dream 2017-12-05


Living the Dream 2017-12-05


Living the Dream 2017-12-05


Living the Dream 2017-12-05