Featured TV Shows


Living the Dream S126E04

Posted By: Tavaz
720p (HD) / WEBRip IMDb
Living the Dream S126E04

Living the Dream S126E04
WEBRip | MKV | 1280x720 | English | H264 @ 4321 kbps | AAC @ 127 kbps | 21 min 35 s | 688 MiB
Genre: Comedy, Drama

A British family, the Pembertons, decide it’s time to leave rainy England and move to the sunshine state of Florida. They've bought an RV Park with plans for a booming family-run business, but it soon turns out that they are not going to be living the dream they hoped.

House.Hunters.International.S126E04.Living.the.Dream.in.Amsterdam.720p.WEBRip.x264-CAFFEiNE.mkv (687.5 MB)
sample-house.hunters.international.s126e04.living.the.dream.in.amsterdam.720p.webrip.x264-caffeine.mkv (22.8 MB)



General
Unique ID : 109704511228325637292158575830589909172 (0x528852008CECE7355EE985F85B7628B4)
Complete name : ./House.Hunters.International.S126E04.Living.the.Dream.in.Amsterdam.720p.WEBRip.x264-CAFFEiNE.mkv
Format : Matroska
Format version : Version 4 / Version 2
File size : 688 MiB
Duration : 21 min 35 s
Overall bit rate : 4 452 kb/s
Encoded date : UTC 2018-09-23 19:24:25
Writing application : mkvmerge v26.0.0 ('In The Game') 64-bit
Writing library : libebml v1.3.6 + libmatroska v1.4.9

Video
ID : 1
Format : AVC
Format/Info : Advanced Video Codec
Format profile : High@L4.1
Format settings : CABAC / 5 Ref Frames
Format settings, CABAC : Yes
Format settings, RefFrames : 5 frames
Codec ID : V_MPEG4/ISO/AVC
Duration : 21 min 35 s
Bit rate : 4 322 kb/s
Width : 1 280 pixels
Height : 720 pixels
Display aspect ratio : 16:9
Frame rate mode : Constant
Frame rate : 23.976 (23976/1000) FPS
Color space : YUV
Chroma subsampling : 4:2:0
Bit depth : 8 bits
Scan type : Progressive
Bits/(Pixel*Frame) : 0.196
Stream size : 667 MiB (97%)
Writing library : x264 core 157 r2932 303c484
Encoding settings : cabac=1 / ref=5 / deblock=1:-3:-3 / analyse=0x3:0x113 / me=hex / subme=8 / psy=1 / psy_rd=1.00:0.00 / mixed_ref=1 / me_range=16 / chroma_me=1 / trellis=2 / 8x8dct=1 / cqm=0 / deadzone=21,11 / fast_pskip=1 / chroma_qp_offset=-2 / threads=34 / lookahead_threads=5 / sliced_threads=0 / nr=0 / decimate=1 / interlaced=0 / bluray_compat=0 / constrained_intra=0 / bframes=3 / b_pyramid=2 / b_adapt=2 / b_bias=0 / direct=3 / weightb=1 / open_gop=0 / weightp=2 / keyint=250 / keyint_min=25 / scenecut=40 / intra_refresh=0 / rc_lookahead=50 / rc=crf / mbtree=1 / crf=19.0 / qcomp=0.60 / qpmin=0 / qpmax=69 / qpstep=4 / ip_ratio=1.40 / aq=1:1.00
Language : English
Default : Yes
Forced : No
Color range : Limited
Matrix coefficients : BT.709

Audio
ID : 2
Format : AAC
Format/Info : Advanced Audio Codec
Format profile : LC
Codec ID : A_AAC-2
Duration : 21 min 35 s
Bit rate : 128 kb/s
Channel(s) : 2 channels
Channel positions : Front: L R
Sampling rate : 44.1 kHz
Frame rate : 43.066 FPS (1024 SPF)
Compression mode : Lossy
Stream size : 19.7 MiB (3%)
Language : English
Default : Yes
Forced : No





Living the Dream S126E04


Living the Dream S126E04


Living the Dream S126E04


Living the Dream S126E04


Living the Dream S126E04

All episodes