Featured TV Shows


House of Cards - Gli intrighi del potere S06E05

Posted By: Tavaz
SD / WEB-DL IMDb
House of Cards - Gli intrighi del potere S06E05

House of Cards - Gli intrighi del potere S06E05
WEB-DL | MKV | 720x360 | Italian | H264 @ 564 kbps | AAC @ 110 kbps | 58 min 46 s | 285 MiB
Subtitles: Italian
Genre: Dramma

Ambientato ai giorni nostri a Washington D.C., House of Cards è la storia di Frank Underwood, un democratico del quinto distretto congressuale della Carolina del Sud che, nonostante avesse sostenuto Garrett Walker come futuro Presidente degli Stati Uniti, viene silurato per la carica di Segretario di Stato. Decide allora di esigere la propria vendetta personale nei confronti dei vertici politici di Washington che lo hanno tradito.

House.Of.Cards.6x05.Capitolo.70.ITA.WEBMux.x264-NovaRip.mkv (284.7 MB)



General
Unique ID : 333218094284673290453257719369427424837 (0xFAAF7877E514952053998B1130A99645)
Complete name : ./House.Of.Cards.6x05.Capitolo.70.ITA.WEBMux.x264-NovaRip.mkv
Format : Matroska
Format version : Version 2
File size : 285 MiB
Duration : 58 min 46 s
Overall bit rate : 677 kb/s
Encoded date : UTC 2018-11-02 12:48:15
Writing application : mkvmerge v8.5.2 ('Crosses') 64bit
Writing library : libebml v1.3.3 + libmatroska v1.4.4

Video
ID : 1
Format : AVC
Format/Info : Advanced Video Codec
Format profile : High@L3.1
Format settings : CABAC / 6 Ref Frames
Format settings, CABAC : Yes
Format settings, RefFrames : 6 frames
Codec ID : V_MPEG4/ISO/AVC
Duration : 58 min 45 s
Bit rate : 565 kb/s
Width : 720 pixels
Height : 360 pixels
Display aspect ratio : 2.000
Frame rate mode : Constant
Frame rate : 23.976 (24000/1001) FPS
Color space : YUV
Chroma subsampling : 4:2:0
Bit depth : 8 bits
Scan type : Progressive
Bits/(Pixel*Frame) : 0.091
Stream size : 237 MiB (83%)
Writing library : x264 core 155 r2893 b00bcaf
Encoding settings : cabac=1 / ref=6 / deblock=1:-2:-2 / analyse=0x3:0x133 / me=umh / subme=7 / psy=1 / psy_rd=1.00:0.00 / mixed_ref=1 / me_range=16 / chroma_me=1 / trellis=2 / 8x8dct=1 / cqm=0 / deadzone=21,11 / fast_pskip=0 / chroma_qp_offset=-2 / threads=6 / lookahead_threads=1 / sliced_threads=0 / nr=0 / decimate=1 / interlaced=0 / bluray_compat=0 / constrained_intra=0 / bframes=5 / b_pyramid=2 / b_adapt=2 / b_bias=0 / direct=3 / weightb=1 / open_gop=0 / weightp=2 / keyint=250 / keyint_min=23 / scenecut=40 / intra_refresh=0 / rc_lookahead=40 / rc=crf / mbtree=1 / crf=18.0 / qcomp=0.60 / qpmin=0 / qpmax=69 / qpstep=4 / ip_ratio=1.40 / aq=1:1.00
Language : English
Default : Yes
Forced : Yes

Audio
ID : 2
Format : AAC
Format/Info : Advanced Audio Codec
Format profile : LC
Codec ID : A_AAC-2
Duration : 58 min 46 s
Bit rate : 110 kb/s
Channel(s) : 2 channels
Channel positions : Front: L R
Sampling rate : 48.0 kHz
Frame rate : 46.875 FPS (1024 SPF)
Compression mode : Lossy
Delay relative to video : 9 ms
Stream size : 46.4 MiB (16%)
Title : ITA
Language : Italian
Default : Yes
Forced : Yes

Text
ID : 3
Format : UTF-8
Codec ID : S_TEXT/UTF8
Codec ID/Info : UTF-8 Plain Text
Duration : 56 min 44 s
Bit rate : 0 b/s
Count of elements : 2
Stream size : 72.0 Bytes (0%)
Title : ITA - Forced
Language : Italian
Default : Yes
Forced : Yes





House of Cards - Gli intrighi del potere S06E05


House of Cards - Gli intrighi del potere S06E05


House of Cards - Gli intrighi del potere S06E05


House of Cards - Gli intrighi del potere S06E05


House of Cards - Gli intrighi del potere S06E05

All episodes