Index
# A B C D E F G H I J K L M N O P Q R S T U V W Y Z
Tags
Language
Tags

Featured TV Shows


How the Universe Works S03E09

Posted By: Tavaz
720p (HD) / WEB-DL IMDb
How the Universe Works S03E09

How the Universe Works S03E09
WEB-DL | MKV | 1280x720 | English | H264 @ 3426 kbps | E-AC-3 @ 224 kbps | 42 min 58 s | 1.09 GiB
Subtitles: English
Genre: Documentary

A users' guide to the cosmos, from the Big Bang to galaxies, stars, planets and moons: where did it all come from and how does it all fit together? A primer for anyone who has ever looked up at the night sky and wondered.

0493e00423134de4b38533a7f0154fd4.mkv (1.1 GB)



General
Unique ID : 88378420939247686823954049611112394531 (0x427D10924E643AA2DABC021D0AB02F23)
Complete name : ./0493e00423134de4b38533a7f0154fd4.mkv
Format : Matroska
Format version : Version 4 / Version 2
File size : 1.09 GiB
Duration : 42 min 58 s
Overall bit rate mode : Variable
Overall bit rate : 3 633 kb/s
Encoded date : UTC 2018-02-01 07:42:20
Writing application : mkvmerge v20.0.0 ('I Am The Sun') 64-bit
Writing library : libebml v1.3.5 + libmatroska v1.4.8

Video
ID : 1
Format : AVC
Format/Info : Advanced Video Codec
Format profile : High@L3.1
Format settings : CABAC / 5 Ref Frames
Format settings, CABAC : Yes
Format settings, RefFrames : 5 frames
Codec ID : V_MPEG4/ISO/AVC
Duration : 42 min 45 s
Bit rate mode : Variable
Bit rate : 3 426 kb/s
Maximum bit rate : 4 500 kb/s
Width : 1 280 pixels
Height : 720 pixels
Display aspect ratio : 16:9
Frame rate mode : Constant
Frame rate : 25.000 FPS
Color space : YUV
Chroma subsampling : 4:2:0
Bit depth : 8 bits
Scan type : Progressive
Bits/(Pixel*Frame) : 0.149
Stream size : 1.02 GiB (94%)
Default : Yes
Forced : No
Color range : Limited
Color primaries : BT.709
Transfer characteristics : BT.709
Matrix coefficients : BT.709

Audio
ID : 2
Format : E-AC-3
Format/Info : Enhanced Audio Coding 3
Format settings, Endianness : Big
Codec ID : A_EAC3
Duration : 42 min 44 s
Bit rate mode : Constant
Bit rate : 224 kb/s
Channel(s) : 2 channels
Channel positions : Front: L R
Sampling rate : 48.0 kHz
Frame rate : 187.500 FPS (256 SPF)
Compression mode : Lossy
Stream size : 68.5 MiB (6%)
Language : English
Service kind : Complete Main
Default : Yes
Forced : No

Text
ID : 3
Format : UTF-8
Codec ID : S_TEXT/UTF8
Codec ID/Info : UTF-8 Plain Text
Duration : 42 min 56 s
Bit rate : 100 b/s
Count of elements : 755
Stream size : 31.6 KiB (0%)
Language : English
Default : No
Forced : No





How the Universe Works S03E09


How the Universe Works S03E09


How the Universe Works S03E09


How the Universe Works S03E09


How the Universe Works S03E09

All episodes