Index
# A B C D E F G H I J K L M N O P Q R S T U V W Y Z
Tags
Language
Tags

Featured TV Shows


How the Universe Works S04E02

Posted By: Tavaz
1080p (FullHD) / WEB-DL IMDb
How the Universe Works S04E02

How the Universe Works S04E02
WEB-DL | MKV | 1920x1080 | English | H264 @ 9527 kbps | E-AC-3 @ 224 kbps | 44 min 4 s | 3.00 GiB
Subtitles: English
Genre: Documentary


A users' guide to the cosmos, from the Big Bang to galaxies, stars, planets and moons: where did it all come from and how does it all fit together? A primer for anyone who has ever looked up at the night sky and wondered.

d585cfb402764fd9ab2318c3dbd32e51.mkv (3.0 GB)



General
Unique ID : 173883820526991434902989344701171450340 (0x82D0CE41070180AAC2EB8EE0B65541E4)
Complete name : ./d585cfb402764fd9ab2318c3dbd32e51.mkv
Format : Matroska
Format version : Version 4 / Version 2
File size : 3.00 GiB
Duration : 44 min 4 s
Overall bit rate mode : Variable
Overall bit rate : 9 754 kb/s
Encoded date : UTC 2018-02-01 09:49:41
Writing application : mkvmerge v20.0.0 ('I Am The Sun') 64-bit
Writing library : libebml v1.3.5 + libmatroska v1.4.8

Video
ID : 1
Format : AVC
Format/Info : Advanced Video Codec
Format profile : High@L4
Format settings : CABAC / 4 Ref Frames
Format settings, CABAC : Yes
Format settings, RefFrames : 4 frames
Codec ID : V_MPEG4/ISO/AVC
Duration : 44 min 4 s
Bit rate mode : Variable
Bit rate : 9 528 kb/s
Maximum bit rate : 15.0 Mb/s
Width : 1 920 pixels
Height : 1 080 pixels
Display aspect ratio : 16:9
Frame rate mode : Constant
Frame rate : 25.000 FPS
Color space : YUV
Chroma subsampling : 4:2:0
Bit depth : 8 bits
Scan type : Progressive
Bits/(Pixel*Frame) : 0.184
Stream size : 2.93 GiB (98%)
Default : Yes
Forced : No
Color range : Limited
Color primaries : BT.709
Transfer characteristics : BT.709
Matrix coefficients : BT.709

Audio
ID : 2
Format : E-AC-3
Format/Info : Enhanced Audio Coding 3
Format settings, Endianness : Big
Codec ID : A_EAC3
Duration : 44 min 3 s
Bit rate mode : Constant
Bit rate : 224 kb/s
Channel(s) : 2 channels
Channel positions : Front: L R
Sampling rate : 48.0 kHz
Frame rate : 187.500 FPS (256 SPF)
Compression mode : Lossy
Stream size : 70.6 MiB (2%)
Language : English
Service kind : Complete Main
Default : Yes
Forced : No

Text
ID : 3
Format : UTF-8
Codec ID : S_TEXT/UTF8
Codec ID/Info : UTF-8 Plain Text
Duration : 44 min 2 s
Bit rate : 112 b/s
Count of elements : 762
Stream size : 36.2 KiB (0%)
Language : English
Default : No
Forced : No





How the Universe Works S04E02


How the Universe Works S04E02


How the Universe Works S04E02


How the Universe Works S04E02


How the Universe Works S04E02

All episodes