Index
# A B C D E F G H I J K L M N O P Q R S T U V W Y Z
Tags
Language
Tags

Featured TV Shows


How the Universe Works S04E08

Posted By: Tavaz
1080p (FullHD) / WEB-DL IMDb
How the Universe Works S04E08

How the Universe Works S04E08
WEB-DL | MKV | 1920x1080 | English | H264 @ 10125 kbps | E-AC-3 @ 224 kbps | 44 min 1 s | 3.18 GiB
Subtitles: English
Genre: Documentary


A users' guide to the cosmos, from the Big Bang to galaxies, stars, planets and moons: where did it all come from and how does it all fit together? A primer for anyone who has ever looked up at the night sky and wondered.

f3a2b8605558448280269824c31843df.mkv (3.2 GB)



General
Unique ID : 156651149344831656375847042557607445205 (0x75D9E9F79E01AB60D107ABA7305082D5)
Complete name : ./f3a2b8605558448280269824c31843df.mkv
Format : Matroska
Format version : Version 4 / Version 2
File size : 3.18 GiB
Duration : 44 min 1 s
Overall bit rate mode : Variable
Overall bit rate : 10.4 Mb/s
Encoded date : UTC 2018-02-01 10:56:14
Writing application : mkvmerge v20.0.0 ('I Am The Sun') 64-bit
Writing library : libebml v1.3.5 + libmatroska v1.4.8

Video
ID : 1
Format : AVC
Format/Info : Advanced Video Codec
Format profile : High@L4
Format settings : CABAC / 4 Ref Frames
Format settings, CABAC : Yes
Format settings, RefFrames : 4 frames
Codec ID : V_MPEG4/ISO/AVC
Duration : 44 min 1 s
Bit rate mode : Variable
Bit rate : 10.1 Mb/s
Maximum bit rate : 15.0 Mb/s
Width : 1 920 pixels
Height : 1 080 pixels
Display aspect ratio : 16:9
Frame rate mode : Constant
Frame rate : 25.000 FPS
Color space : YUV
Chroma subsampling : 4:2:0
Bit depth : 8 bits
Scan type : Progressive
Bits/(Pixel*Frame) : 0.195
Stream size : 3.11 GiB (98%)
Default : Yes
Forced : No
Color range : Limited
Color primaries : BT.709
Transfer characteristics : BT.709
Matrix coefficients : BT.709

Audio
ID : 2
Format : E-AC-3
Format/Info : Enhanced Audio Coding 3
Format settings, Endianness : Big
Codec ID : A_EAC3
Duration : 44 min 0 s
Bit rate mode : Constant
Bit rate : 224 kb/s
Channel(s) : 2 channels
Channel positions : Front: L R
Sampling rate : 48.0 kHz
Frame rate : 187.500 FPS (256 SPF)
Compression mode : Lossy
Stream size : 70.5 MiB (2%)
Language : English
Service kind : Complete Main
Default : Yes
Forced : No

Text
ID : 3
Format : UTF-8
Codec ID : S_TEXT/UTF8
Codec ID/Info : UTF-8 Plain Text
Duration : 43 min 57 s
Bit rate : 93 b/s
Count of elements : 680
Stream size : 30.3 KiB (0%)
Language : English
Default : No
Forced : No





How the Universe Works S04E08


How the Universe Works S04E08


How the Universe Works S04E08


How the Universe Works S04E08


How the Universe Works S04E08

All episodes