Index
# A B C D E F G H I J K L M N O P Q R S T U V W Y Z
Tags
Language
Tags

Featured TV Shows


How the Universe Works S05E01

Posted By: Tavaz
720p (HD) / WEB-DL IMDb
How the Universe Works S05E01

How the Universe Works S05E01
WEB-DL | MKV | 1280x720 | English | H264 @ 3352 kbps | E-AC-3 @ 224 kbps | 44 min 2 s | 1.10 GiB
Genre: Documentary

A users' guide to the cosmos, from the Big Bang to galaxies, stars, planets and moons: where did it all come from and how does it all fit together? A primer for anyone who has ever looked up at the night sky and wondered.

2a9d8b5759e448d584e8687b5f215e7e.mkv (1.1 GB)



General
Unique ID : 310718784431842241032269237808284742183 (0xE9C242D8E5AF6C92FADE7105D60AB227)
Complete name : ./2a9d8b5759e448d584e8687b5f215e7e.mkv
Format : Matroska
Format version : Version 4 / Version 2
File size : 1.10 GiB
Duration : 44 min 2 s
Overall bit rate mode : Variable
Overall bit rate : 3 579 kb/s
Encoded date : UTC 2018-02-01 11:12:43
Writing application : mkvmerge v20.0.0 ('I Am The Sun') 64-bit
Writing library : libebml v1.3.5 + libmatroska v1.4.8

Video
ID : 1
Format : AVC
Format/Info : Advanced Video Codec
Format profile : High@L3.1
Format settings : CABAC / 5 Ref Frames
Format settings, CABAC : Yes
Format settings, RefFrames : 5 frames
Codec ID : V_MPEG4/ISO/AVC
Duration : 44 min 2 s
Bit rate mode : Variable
Bit rate : 3 353 kb/s
Maximum bit rate : 4 500 kb/s
Width : 1 280 pixels
Height : 720 pixels
Display aspect ratio : 16:9
Frame rate mode : Constant
Frame rate : 25.000 FPS
Color space : YUV
Chroma subsampling : 4:2:0
Bit depth : 8 bits
Scan type : Progressive
Bits/(Pixel*Frame) : 0.146
Stream size : 1.03 GiB (94%)
Default : Yes
Forced : No
Color range : Limited
Color primaries : BT.709
Transfer characteristics : BT.709
Matrix coefficients : BT.709

Audio
ID : 2
Format : E-AC-3
Format/Info : Enhanced Audio Coding 3
Format settings, Endianness : Big
Codec ID : A_EAC3
Duration : 44 min 1 s
Bit rate mode : Constant
Bit rate : 224 kb/s
Channel(s) : 2 channels
Channel positions : Front: L R
Sampling rate : 48.0 kHz
Frame rate : 187.500 FPS (256 SPF)
Compression mode : Lossy
Stream size : 70.5 MiB (6%)
Language : English
Service kind : Complete Main
Default : Yes
Forced : No





How the Universe Works S05E01


How the Universe Works S05E01


How the Universe Works S05E01


How the Universe Works S05E01


How the Universe Works S05E01

All episodes