Featured TV Shows


How To with John Wilson S01E05

Posted By: Tavaz
1080p (FullHD) / WEB-DL IMDb
How To with John Wilson S01E05

How To with John Wilson S01E05
WEB-DL | MKV | 1920x1080 | H264 @ 9318 kbps | E-AC-3 @ 640 kbps | 25 min 26 s | 1.81 GiB
Genre: Comedy, Documentary


In a uniquely hilarious odyssey of self-discovery and cultural observation, documentary filmmaker and self-described “anxious New Yorker” John Wilson covertly and obsessively films the lives of his fellow New Yorkers while attempting to give everyday advice on relatable topics. The awkward contradictions of modern life are eased by Wilson’s candid, unpolished commentary. Building upon Wilson’s previously released “how to” short films, each episode takes wildly unexpected turns but is grounded in John’s refreshing honesty.

0798eead9d6940e5be646a61a8ce9c56.mkv (1.8 GB)



General
Unique ID : 109448660486751185812474964997201027152 (0x52570B96305B33B6329F8BF394B96050)
Complete name : ./0798eead9d6940e5be646a61a8ce9c56.mkv
Format : Matroska
Format version : Version 4 / Version 2
File size : 1.81 GiB
Duration : 25 min 26 s
Overall bit rate : 10.2 Mb/s
Writing application : Lavf58.42.100
Writing library : Lavf58.42.100
ErrorDetectionType : Per level 1

Video
ID : 1
Format : AVC
Format/Info : Advanced Video Codec
Format profile : High@L4
Format settings : CABAC / 4 Ref Frames
Format settings, CABAC : Yes
Format settings, RefFrames : 4 frames
Codec ID : V_MPEG4/ISO/AVC
Duration : 25 min 25 s
Bit rate mode : Constant
Bit rate : 9 319 kb/s
Nominal bit rate : 10 000 kb/s
Width : 1 920 pixels
Height : 1 080 pixels
Display aspect ratio : 16:9
Frame rate mode : Constant
Frame rate : 29.970 (30000/1001) FPS
Color space : YUV
Chroma subsampling : 4:2:0
Bit depth : 8 bits
Scan type : Progressive
Bits/(Pixel*Frame) : 0.150
Stream size : 1.66 GiB (92%)
Default : Yes
Forced : No
Color range : Limited
Color primaries : BT.709
Transfer characteristics : BT.709
Matrix coefficients : BT.709

Audio
ID : 2
Format : E-AC-3
Format/Info : Enhanced Audio Coding 3
Format settings, Endianness : Big
Codec ID : A_EAC3
Duration : 25 min 26 s
Bit rate mode : Constant
Bit rate : 640 kb/s
Channel(s) : 6 channels
Channel positions : Front: L C R, Side: L R, LFE
Sampling rate : 48.0 kHz
Frame rate : 187.500 FPS (256 SPF)
Bit depth : 32 bits
Compression mode : Lossy
Stream size : 116 MiB (6%)
Service kind : Complete Main
Default : Yes
Forced : No

Text
ID : 3
Format : ASS
Codec ID : S_TEXT/ASS
Codec ID/Info : Advanced Sub Station Alpha
Duration : 25 min 20 s
Compression mode : Lossless
Writing library : Lavc58.80.100 ssa
Default : No
Forced : No





How To with John Wilson S01E05


How To with John Wilson S01E05


How To with John Wilson S01E05


How To with John Wilson S01E05


How To with John Wilson S01E05

All episodes