Index
# A B C D E F G H I J K L M N O P Q R S T U V W Y Z
Tags
Language
Tags

Featured TV Shows


How the Universe Works S01E08

Posted By: Tavaz
1080p (FullHD) / WEB-DL IMDb
How the Universe Works S01E08

How the Universe Works S01E08
WEB-DL | MKV | 1920x1080 | English | H264 @ 9298 kbps | E-AC-3 @ 224 kbps | 43 min 34 s | 2.90 GiB
Subtitles: English
Genre: Documentary


A users' guide to the cosmos, from the Big Bang to galaxies, stars, planets and moons: where did it all come from and how does it all fit together? A primer for anyone who has ever looked up at the night sky and wondered.

ec7de3d9306d440599a688eebbca8ae0.mkv (2.9 GB)



General
Unique ID : 222263971690745457330781148268794902684 (0xA7367BDE7EE3A12DA810CE6001F6789C)
Complete name : ./ec7de3d9306d440599a688eebbca8ae0.mkv
Format : Matroska
Format version : Version 4 / Version 2
File size : 2.90 GiB
Duration : 43 min 34 s
Overall bit rate mode : Variable
Overall bit rate : 9 525 kb/s
Encoded date : UTC 2018-02-16 13:37:26
Writing application : mkvmerge v13.0.0 ('The Juggler') 64bit
Writing library : libebml v1.3.4 + libmatroska v1.4.5

Video
ID : 1
Format : AVC
Format/Info : Advanced Video Codec
Format profile : High@L4
Format settings : CABAC / 4 Ref Frames
Format settings, CABAC : Yes
Format settings, RefFrames : 4 frames
Codec ID : V_MPEG4/ISO/AVC
Duration : 43 min 34 s
Bit rate mode : Variable
Bit rate : 9 299 kb/s
Maximum bit rate : 15.0 Mb/s
Width : 1 920 pixels
Height : 1 080 pixels
Display aspect ratio : 16:9
Frame rate mode : Constant
Frame rate : 29.970 (30000/1001) FPS
Color space : YUV
Chroma subsampling : 4:2:0
Bit depth : 8 bits
Scan type : Progressive
Bits/(Pixel*Frame) : 0.150
Stream size : 2.83 GiB (98%)
Default : Yes
Forced : No
Color range : Limited
Color primaries : BT.709
Transfer characteristics : BT.709
Matrix coefficients : BT.709

Audio
ID : 2
Format : E-AC-3
Format/Info : Enhanced Audio Coding 3
Format settings, Endianness : Big
Codec ID : A_EAC3
Duration : 43 min 33 s
Bit rate mode : Constant
Bit rate : 224 kb/s
Channel(s) : 2 channels
Channel positions : Front: L R
Sampling rate : 48.0 kHz
Frame rate : 187.500 FPS (256 SPF)
Compression mode : Lossy
Stream size : 69.8 MiB (2%)
Language : English
Service kind : Complete Main
Default : Yes
Forced : No

Text #1
ID : 3
Format : UTF-8
Codec ID : S_TEXT/UTF8
Codec ID/Info : UTF-8 Plain Text
Duration : 43 min 31 s
Bit rate : 76 b/s
Count of elements : 609
Stream size : 24.3 KiB (0%)
Language : English
Default : No
Forced : No

Text #2
ID : 4
Format : UTF-8
Codec ID : S_TEXT/UTF8
Codec ID/Info : UTF-8 Plain Text
Duration : 43 min 31 s
Bit rate : 76 b/s
Count of elements : 615
Stream size : 24.4 KiB (0%)
Title : SDH
Language : English
Default : No
Forced : No





How the Universe Works S01E08


How the Universe Works S01E08


How the Universe Works S01E08


How the Universe Works S01E08


How the Universe Works S01E08

All episodes