Index
# A B C D E F G H I J K L M N O P Q R S T U V W Y Z
Tags
Language
Tags

Featured TV Shows


How the Universe Works S04E05

Posted By: Tavaz
720p (HD) / HDTV IMDb
How the Universe Works S04E05

How the Universe Works S04E05
HDTV | MKV | 1280x720 | H264 @ 3718 kbps | AC-3 @ 384 kbps | 43 min 0 s | 1.26 GiB
Genre: Documentary


A users' guide to the cosmos, from the Big Bang to galaxies, stars, planets and moons: where did it all come from and how does it all fit together? A primer for anyone who has ever looked up at the night sky and wondered.

679c622e4c7048d19e06935de0b59219.mkv (1.3 GB)



General
Unique ID : 227685362661251046749123270881429274512 (0xAB4A9B14B663E570AA4ED3D5CE11BF90)
Complete name : ./679c622e4c7048d19e06935de0b59219.mkv
Format : Matroska
Format version : Version 2
File size : 1.26 GiB
Duration : 43 min 0 s
Overall bit rate : 4 186 kb/s
Encoded date : UTC 2015-08-12 07:11:41
Writing application : mkvmerge v4.8.0 ('SALVATION') built on May 24 2011 03:12:58
Writing library : libebml v1.2.0 + libmatroska v1.1.0

Video
ID : 1
Format : AVC
Format/Info : Advanced Video Codec
Format profile : High@L4.1
Format settings : CABAC / 5 Ref Frames
Format settings, CABAC : Yes
Format settings, RefFrames : 5 frames
Codec ID : V_MPEG4/ISO/AVC
Duration : 43 min 0 s
Bit rate : 3 719 kb/s
Width : 1 280 pixels
Height : 720 pixels
Display aspect ratio : 16:9
Frame rate mode : Constant
Frame rate : 29.970 (30000/1001) FPS
Color space : YUV
Chroma subsampling : 4:2:0
Bit depth : 8 bits
Scan type : Progressive
Bits/(Pixel*Frame) : 0.135
Stream size : 1.12 GiB (89%)
Writing library : x264 core 148 r2579 73ae2d1
Encoding settings : cabac=1 / ref=5 / deblock=1:0:0 / analyse=0x3:0x113 / me=umh / subme=8 / psy=1 / psy_rd=1.00:0.00 / mixed_ref=1 / me_range=16 / chroma_me=1 / trellis=1 / 8x8dct=1 / cqm=0 / deadzone=21,11 / fast_pskip=1 / chroma_qp_offset=-2 / threads=12 / lookahead_threads=2 / sliced_threads=0 / nr=0 / decimate=1 / interlaced=0 / bluray_compat=0 / constrained_intra=0 / bframes=3 / b_pyramid=2 / b_adapt=2 / b_bias=0 / direct=3 / weightb=1 / open_gop=0 / weightp=2 / keyint=250 / keyint_min=25 / scenecut=40 / intra_refresh=0 / rc_lookahead=50 / rc=crf / mbtree=1 / crf=20.0 / qcomp=0.60 / qpmin=0 / qpmax=69 / qpstep=4 / ip_ratio=1.40 / aq=1:1.00
Default : Yes
Forced : No

Audio
ID : 2
Format : AC-3
Format/Info : Audio Coding 3
Format settings, Endianness : Big
Codec ID : A_AC3
Duration : 43 min 0 s
Bit rate mode : Constant
Bit rate : 384 kb/s
Channel(s) : 6 channels
Channel positions : Front: L C R, Side: L R, LFE
Sampling rate : 48.0 kHz
Frame rate : 31.250 FPS (1536 SPF)
Bit depth : 16 bits
Compression mode : Lossy
Stream size : 118 MiB (9%)
Service kind : Complete Main
Default : Yes
Forced : No





How the Universe Works S04E05


How the Universe Works S04E05


How the Universe Works S04E05


How the Universe Works S04E05


How the Universe Works S04E05

All episodes