Index
# A B C D E F G H I J K L M N O P Q R S T U V W Y Z
Tags
Language
Tags

Featured TV Shows


How the Universe Works S05E02

Posted By: Tavaz
1080p (FullHD) / WEB-DL IMDb
How the Universe Works S05E02

How the Universe Works S05E02
WEB-DL | MKV | 1920x1080 | English | H264 @ 4500 kbps | AAC @ 127 kbps | 42 min 29 s | 1.38 GiB
Genre: Documentary

A users' guide to the cosmos, from the Big Bang to galaxies, stars, planets and moons: where did it all come from and how does it all fit together? A primer for anyone who has ever looked up at the night sky and wondered.

7c0a5a4c6bb64ce18564d94c79383f0f.mkv (1.4 GB)



General
Unique ID : 237353253936288094064252524803574453233 (0xB29092EC1E091CE0B7E7F6AAC5C7D3F1)
Complete name : ./7c0a5a4c6bb64ce18564d94c79383f0f.mkv
Format : Matroska
Format version : Version 4 / Version 2
File size : 1.38 GiB
Duration : 42 min 29 s
Overall bit rate : 4 636 kb/s
Encoded date : UTC 2017-09-30 23:11:34
Writing application : mkvmerge v9.5.0 ('Quiet Fire') 32bit
Writing library : libebml v1.3.4 + libmatroska v1.4.5

Video
ID : 1
Format : AVC
Format/Info : Advanced Video Codec
Format profile : High@L4
Format settings : CABAC / 4 Ref Frames
Format settings, CABAC : Yes
Format settings, RefFrames : 4 frames
Codec ID : V_MPEG4/ISO/AVC
Duration : 42 min 29 s
Bit rate : 4 500 kb/s
Width : 1 920 pixels
Height : 1 080 pixels
Display aspect ratio : 16:9
Frame rate mode : Variable
Frame rate : 29.970 FPS
Color space : YUV
Chroma subsampling : 4:2:0
Bit depth : 8 bits
Scan type : Progressive
Bits/(Pixel*Frame) : 0.072
Stream size : 1.34 GiB (97%)
Writing library : x264 core 133
Encoding settings : cabac=1 / ref=3 / deblock=1:0:0 / analyse=0x3:0x113 / me=hex / subme=7 / psy=1 / psy_rd=1.00:0.00 / mixed_ref=1 / me_range=16 / chroma_me=1 / trellis=1 / 8x8dct=1 / cqm=0 / deadzone=21,11 / fast_pskip=1 / chroma_qp_offset=-2 / threads=48 / lookahead_threads=8 / sliced_threads=0 / nr=0 / decimate=1 / interlaced=0 / bluray_compat=0 / constrained_intra=0 / bframes=16 / b_pyramid=2 / b_adapt=1 / b_bias=0 / direct=1 / weightb=1 / open_gop=0 / weightp=2 / keyint=300 / keyint_min=29 / scenecut=40 / intra_refresh=0 / rc_lookahead=40 / rc=abr / mbtree=1 / bitrate=4500 / ratetol=1.0 / qcomp=0.60 / qpmin=0 / qpmax=69 / qpstep=4 / ip_ratio=1.40 / aq=1:1.00
Default : Yes
Forced : No

Audio
ID : 2
Format : AAC
Format/Info : Advanced Audio Codec
Format profile : LC
Codec ID : A_AAC-2
Duration : 42 min 29 s
Bit rate : 128 kb/s
Channel(s) : 2 channels
Channel positions : Front: L R
Sampling rate : 44.1 kHz
Frame rate : 43.066 FPS (1024 SPF)
Compression mode : Lossy
Delay relative to video : -67 ms
Stream size : 38.9 MiB (3%)
Default : Yes
Forced : No

Text
ID : 3
Format : UTF-8
Codec ID : S_TEXT/UTF8
Codec ID/Info : UTF-8 Plain Text
Duration : 42 min 21 s
Bit rate : 102 b/s
Count of elements : 848
Stream size : 31.8 KiB (0%)
Default : No
Forced : No

Menu
00:11:24.417 : en:Chapter 1
00:17:31.150 : en:Chapter 2
00:23:46.258 : en:Chapter 3
00:30:24.956 : en:Chapter 4
00:36:51.943 : en:Chapter 5





How the Universe Works S05E02


How the Universe Works S05E02


How the Universe Works S05E02


How the Universe Works S05E02


How the Universe Works S05E02

All episodes