Index
# A B C D E F G H I J K L M N O P Q R S T U V W X Y Z
Tags
Language
Tags
May 2024
Su Mo Tu We Th Fr Sa
28 29 30 1 2 3 4
5 6 7 8 9 10 11
12 13 14 15 16 17 18
19 20 21 22 23 24 25
26 27 28 29 30 31 1

Featured TV Shows


Humans S03E03

Posted By: Tavaz
1080p (FullHD) / BDRip IMDb
Humans S03E03

Humans S03E03
BluRay Remux | MKV | 1920x1080 | English | H264 @ 23998 kbps | DTS | 48 min 20 s | 8.71 GiB
Subtitles: English
Genre: Drama, Mystery


In a parallel present where the latest must-have gadget for any busy family is a 'Synth' - a highly-developed robotic servant that's so similar to a real human it's transforming the way we live.

Humans.S03E03.Episode.3.1080p.BluRay.REMUX.AVC.DTS-HD.MA.5.1-EPSiLON.part1.rar (4.6 GB)
Humans.S03E03.Episode.3.1080p.BluRay.REMUX.AVC.DTS-HD.MA.5.1-EPSiLON.part2.rar (4.2 GB)



General
Unique ID : 276289035869895370195770242653101943861 (0xCFDB552F06017CE012E652871C6AEC35)
Complete name : ./6c57d62588834628b78b9ce50fba61f0.mkv
Format : Matroska
Format version : Version 4 / Version 2
File size : 8.71 GiB
Duration : 48 min 20 s
Overall bit rate mode : Variable
Overall bit rate : 25.8 Mb/s
Movie name : Humans - S03E03 - Episode 3
Track name/Position : 3
Track name/Total : 8
Encoded date : UTC 2019-02-07 15:48:38
Writing application : mkvmerge v30.1.0 ('Forever And More') 64-bit
Writing library : libebml v1.3.6 + libmatroska v1.4.9
IMDB : tt7216890
TMDB : tv/62822
TVDB : 292124

Video
ID : 1
Format : AVC
Format/Info : Advanced Video Codec
Format profile : High@L4.1
Format settings : CABAC / 4 Ref Frames
Format settings, CABAC : Yes
Format settings, RefFrames : 4 frames
Codec ID : V_MPEG4/ISO/AVC
Duration : 48 min 20 s
Bit rate mode : Variable
Bit rate : 24.0 Mb/s
Maximum bit rate : 35.0 Mb/s
Width : 1 920 pixels
Height : 1 080 pixels
Display aspect ratio : 16:9
Frame rate mode : Constant
Frame rate : 23.976 (24000/1001) FPS
Standard : NTSC
Color space : YUV
Chroma subsampling : 4:2:0
Bit depth : 8 bits
Scan type : Progressive
Bits/(Pixel*Frame) : 0.483
Stream size : 8.10 GiB (93%)
Title : MPEG-4 AVC Video / 24000 kbps / 1080p / 23.976 fps / 16:9 / High Profile 4.1
Language : English
Default : Yes
Forced : No
Color range : Limited
Color primaries : BT.709
Transfer characteristics : BT.709
Matrix coefficients : BT.709

Audio
ID : 2
Format : DTS
Format/Info : Digital Theater Systems
Format profile : MA / Core
Mode : 16
Format settings, Endianness : Big
Codec ID : A_DTS
Duration : 48 min 20 s
Bit rate mode : Variable / Constant
Bit rate : 1 752 kb/s / 1 509 kb/s
Channel(s) : 6 channels
Channel positions : Front: L C R, Side: L R, LFE
Sampling rate : 48.0 kHz
Frame rate : 93.750 FPS (512 SPF)
Bit depth : 16 bits
Compression mode : Lossless / Lossy
Stream size : 606 MiB (7%)
Title : DTS-HD Master Audio / 5.1 / 48 kHz / 1752 kbps / 16-bit
Language : English
Default : Yes
Forced : No

Text
ID : 3
Format : PGS
Codec ID : S_HDMV/PGS
Codec ID/Info : Picture based subtitle format used on BDs/HD-DVDs
Duration : 47 min 8 s
Bit rate : 46.9 kb/s
Count of elements : 1408
Stream size : 15.8 MiB (0%)
Title : SDH
Language : English
Default : No
Forced : No

Menu
00:00:00.000 : en:Homecoming
00:07:23.860 : en:Out In The Open
00:16:40.333 : en:Integration Effort
00:27:45.539 : en:A Night Out
00:34:38.285 : en:The Synth Who Sleeps
00:39:00.547 : en:Hard Choices





Humans S03E03


Humans S03E03


Humans S03E03


Humans S03E03


Humans S03E03

All episodes