Index
# A B C D E F G H I J K L M N O P Q R S T U V W X Y Z
Tags
Language
Tags
May 2024
Su Mo Tu We Th Fr Sa
28 29 30 1 2 3 4
5 6 7 8 9 10 11
12 13 14 15 16 17 18
19 20 21 22 23 24 25
26 27 28 29 30 31 1

Featured TV Shows


Humans S03E06

Posted By: Tavaz
1080p (FullHD) / BDRip IMDb
Humans S03E06

Humans S03E06
BluRay Remux | MKV | 1920x1080 | English | H264 @ 21999 kbps | DTS | 49 min 55 s | 8.37 GiB
Subtitles: English
Genre: Drama, Mystery


In a parallel present where the latest must-have gadget for any busy family is a 'Synth' - a highly-developed robotic servant that's so similar to a real human it's transforming the way we live.

Humans.S03E06.Episode.6.1080p.BluRay.REMUX.AVC.DTS-HD.MA.5.1-NOGRP.part1.rar (4.4 GB)
Humans.S03E06.Episode.6.1080p.BluRay.REMUX.AVC.DTS-HD.MA.5.1-NOGRP.part2.rar (4.1 GB)



General
Unique ID : 33669713334212329088330970081584357942 (0x19548D08A13699231D0508740A1E2236)
Complete name : ./b633c1f98f5a4105874c383daa4a3df4.mkv
Format : Matroska
Format version : Version 4 / Version 2
File size : 8.37 GiB
Duration : 49 min 55 s
Overall bit rate mode : Variable
Overall bit rate : 24.0 Mb/s
Movie name : Humans - S03E06 - Episode 6
Track name/Position : 6
Track name/Total : 8
Encoded date : UTC 2022-06-22 20:37:01
Writing application : mkvmerge v68.0.0 ('The Curtain') 64-bit
Writing library : libebml v1.4.2 + libmatroska v1.6.4
IMDB : tt7216904
TMDB : tv/62822
TVDB : 292124

Video
ID : 1
Format : AVC
Format/Info : Advanced Video Codec
Format profile : High@L4.1
Format settings : CABAC / 4 Ref Frames
Format settings, CABAC : Yes
Format settings, RefFrames : 4 frames
Codec ID : V_MPEG4/ISO/AVC
Duration : 49 min 54 s
Bit rate mode : Variable
Bit rate : 22.0 Mb/s
Maximum bit rate : 35.0 Mb/s
Width : 1 920 pixels
Height : 1 080 pixels
Display aspect ratio : 16:9
Frame rate mode : Constant
Frame rate : 23.976 (24000/1001) FPS
Standard : NTSC
Color space : YUV
Chroma subsampling : 4:2:0
Bit depth : 8 bits
Scan type : Progressive
Bits/(Pixel*Frame) : 0.442
Stream size : 7.67 GiB (92%)
Title : MPEG-4 AVC Video / 22001 kbps / 1080p / 23.976 fps / 16:9 / High Profile 4.1
Language : English
Default : Yes
Forced : No
Color range : Limited
Color primaries : BT.709
Transfer characteristics : BT.709
Matrix coefficients : BT.709

Audio
ID : 2
Format : DTS
Format/Info : Digital Theater Systems
Format profile : MA / Core
Mode : 16
Format settings, Endianness : Big
Codec ID : A_DTS
Duration : 49 min 55 s
Bit rate mode : Variable / Constant
Bit rate : 1 978 kb/s / 1 509 kb/s
Channel(s) : 6 channels
Channel positions : Front: L C R, Side: L R, LFE
Sampling rate : 48.0 kHz
Frame rate : 93.750 FPS (512 SPF)
Bit depth : 16 bits
Compression mode : Lossless / Lossy
Stream size : 706 MiB (8%)
Title : DTS-HD Master Audio / 5.1 / 48 kHz / 1978 kbps / 16-bit
Language : English
Default : Yes
Forced : No

Text #1
ID : 3
Format : UTF-8
Codec ID : S_TEXT/UTF8
Codec ID/Info : UTF-8 Plain Text
Duration : 48 min 18 s
Bit rate : 49 b/s
Count of elements : 588
Stream size : 17.6 KiB (0%)
Title : English
Language : English
Default : Yes
Forced : No

Text #2
ID : 4
Format : UTF-8
Codec ID : S_TEXT/UTF8
Codec ID/Info : UTF-8 Plain Text
Duration : 49 min 3 s
Bit rate : 54 b/s
Count of elements : 673
Stream size : 19.4 KiB (0%)
Title : English SDH
Language : English
Default : No
Forced : No

Text #3
ID : 5
Format : PGS
Muxing mode : zlib
Codec ID : S_HDMV/PGS
Codec ID/Info : Picture based subtitle format used on BDs/HD-DVDs
Duration : 49 min 3 s
Bit rate : 40.7 kb/s
Count of elements : 1358
Stream size : 14.3 MiB (0%)
Title : SDH
Language : English
Default : No
Forced : No

Menu
00:00:00.000 : en:Big Day
00:08:14.911 : en:Passive Resistance
00:17:27.630 : en:Memories
00:24:00.272 : en:Imprisoned, Beaten, Betrayed
00:31:08.533 : en:Their Voice Is Heard
00:41:34.409 : en:Zeros And Ones





Humans S03E06


Humans S03E06


Humans S03E06


Humans S03E06


Humans S03E06

All episodes