Index
# A B C D E F G H I J K L M N O P Q R S T U V W X Y Z
Tags
Language
Tags
June 2024
Su Mo Tu We Th Fr Sa
26 27 28 29 30 31 1
2 3 4 5 6 7 8
9 10 11 12 13 14 15
16 17 18 19 20 21 22
23 24 25 26 27 28 29
30 1 2 3 4 5 6

Featured TV Shows


Humans S03E08

Posted By: Tavaz
1080p (FullHD) / HDTV IMDb
Humans S03E08

Humans S03E08
HDTV | MKV | 1920x1080 | French / English | H264 @ 8408 kbps | AAC @ 62 kbps | 45 min 5 s | 2.69 GiB
Subtitles: French
Genre: Drama, Mystery


In a parallel present where the latest must-have gadget for any busy family is a 'Synth' - a highly-developed robotic servant that's so similar to a real human it's transforming the way we live.

0f5818c9b4524d33a8c0351543b0cb76.mkv (2.7 GB)



General
Unique ID : 294767278262178528910512924475024395193 (0xDDC21CDF59D99832A82EA816BBE6CBB9)
Complete name : ./0f5818c9b4524d33a8c0351543b0cb76.mkv
Format : Matroska
Format version : Version 4 / Version 2
File size : 2.69 GiB
Duration : 45 min 5 s
Overall bit rate : 8 538 kb/s
Encoded date : UTC 2020-02-09 10:19:18
Writing application : mkvmerge v43.0.0 ('The Quartermaster') 64-bit
Writing library : libebml v1.3.10 + libmatroska v1.5.2

Video
ID : 1
Format : AVC
Format/Info : Advanced Video Codec
Format profile : High@L4
Format settings : CABAC / 4 Ref Frames
Format settings, CABAC : Yes
Format settings, RefFrames : 4 frames
Codec ID : V_MPEG4/ISO/AVC
Duration : 45 min 5 s
Bit rate : 8 408 kb/s
Width : 1 920 pixels
Height : 1 080 pixels
Display aspect ratio : 16:9
Frame rate mode : Variable
Frame rate : 50.000 FPS
Original frame rate : 25.000 FPS
Standard : Component
Color space : YUV
Chroma subsampling : 4:2:0
Bit depth : 8 bits
Scan type : Interlaced
Scan type, store method : Separated fields
Scan order : Top Field First
Bits/(Pixel*Frame) : 0.081
Stream size : 2.65 GiB (98%)
Title : Humans S03E08
Language : French
Default : Yes
Forced : No
Color range : Limited
Color primaries : BT.709
Transfer characteristics : BT.709
Matrix coefficients : BT.709

Audio #1
ID : 2
Format : AAC
Format/Info : Advanced Audio Codec
Format profile : HE-AAC / LC
Format settings : Explicit
Codec ID : A_AAC-2
Duration : 45 min 5 s
Bit rate : 62.7 kb/s
Channel(s) : 2 channels
Channel positions : Front: L R
Sampling rate : 48.0 kHz / 24.0 kHz
Frame rate : 23.438 FPS (1024 SPF)
Compression mode : Lossy
Stream size : 20.2 MiB (1%)
Title : Français HE-AAC 2.0
Language : French
Default : Yes
Forced : No

Audio #2
ID : 3
Format : AAC
Format/Info : Advanced Audio Codec
Format profile : HE-AAC / LC
Format settings : Explicit
Codec ID : A_AAC-2
Duration : 45 min 5 s
Bit rate : 62.7 kb/s
Channel(s) : 2 channels
Channel positions : Front: L R
Sampling rate : 48.0 kHz / 24.0 kHz
Frame rate : 23.438 FPS (1024 SPF)
Compression mode : Lossy
Stream size : 20.2 MiB (1%)
Title : Anglais HE-AAC 2.0
Language : English
Default : No
Forced : No

Text
ID : 5
Format : UTF-8
Codec ID : S_TEXT/UTF8
Codec ID/Info : UTF-8 Plain Text
Duration : 44 min 9 s
Bit rate : 53 b/s
Count of elements : 584
Stream size : 17.4 KiB (0%)
Title : Français
Language : French
Default : No
Forced : No





Humans S03E08


Humans S03E08


Humans S03E08


Humans S03E08


Humans S03E08

All episodes