Featured TV Shows


Hunters S01E01

Posted By: Tavaz
1080p (FullHD) / WEBRip IMDb
Hunters S01E01

Hunters S01E01
WEBRip | MKV | 1920x1080 | English / Italiano | H264 @ 6129 kbps | E-AC-3 @ 640 kbps | 1 h 30 min | 4.67 GiB
Subtitles: English, Italiano
Genre: Crime, Drama


A diverse band of Nazi Hunters living in 1977 New York City discover that hundreds of high ranking Nazi officials are living among us and conspiring to create a Fourth Reich in the U.S. The eclectic team of Hunters set out on a bloody quest to bring the Nazis to justice and thwart their new genocidal plans.

Hunters.2020.1x01.Nel.Ventre.Della.Balena.ITA-ENG.1080p.WEB.DDP5.1.H264-NovaRip.mkv (4.7 GB)



General
Unique ID : 326553894302737170391297654270877046410 (0xF5ABFE0A9C12C9697CEA3BC1AA7D168A)
Complete name : ./Hunters.2020.1x01.Nel.Ventre.Della.Balena.ITA-ENG.1080p.WEB.DDP5.1.H264-NovaRip.mkv
Format : Matroska
Format version : Version 4 / Version 2
File size : 4.67 GiB
Duration : 1 h 30 min
Overall bit rate : 7 412 kb/s
Encoded date : UTC 2020-03-07 20:03:18
Writing application : mkvmerge v43.0.0 ('The Quartermaster') 64-bit
Writing library : libebml v1.3.10 + libmatroska v1.5.2

Video
ID : 1
Format : AVC
Format/Info : Advanced Video Codec
Format profile : High@L4
Format settings : CABAC / 4 Ref Frames
Format settings, CABAC : Yes
Format settings, RefFrames : 4 frames
Codec ID : V_MPEG4/ISO/AVC
Duration : 1 h 30 min
Bit rate mode : Constant
Bit rate : 6 130 kb/s
Nominal bit rate : 10 000 kb/s
Width : 1 920 pixels
Height : 1 080 pixels
Display aspect ratio : 16:9
Frame rate mode : Constant
Frame rate : 23.976 (24000/1001) FPS
Color space : YUV
Chroma subsampling : 4:2:0
Bit depth : 8 bits
Scan type : Progressive
Bits/(Pixel*Frame) : 0.123
Stream size : 3.87 GiB (83%)
Default : Yes
Forced : No
Color range : Limited
Color primaries : BT.709
Transfer characteristics : BT.709
Matrix coefficients : BT.709

Audio #1
ID : 2
Format : E-AC-3
Format/Info : Enhanced Audio Coding 3
Format settings, Endianness : Big
Codec ID : A_EAC3
Duration : 1 h 30 min
Bit rate mode : Constant
Bit rate : 640 kb/s
Channel(s) : 6 channels
Channel positions : Front: L C R, Side: L R, LFE
Sampling rate : 48.0 kHz
Frame rate : 187.500 FPS (256 SPF)
Compression mode : Lossy
Stream size : 413 MiB (9%)
Title : DD+ 5.1 Italiano @ 640 kbps
Language : Italian
Service kind : Complete Main
Default : Yes
Forced : Yes

Audio #2
ID : 3
Format : E-AC-3
Format/Info : Enhanced Audio Coding 3
Format settings, Endianness : Big
Codec ID : A_EAC3
Duration : 1 h 30 min
Bit rate mode : Constant
Bit rate : 640 kb/s
Channel(s) : 6 channels
Channel positions : Front: L C R, Side: L R, LFE
Sampling rate : 48.0 kHz
Frame rate : 187.500 FPS (256 SPF)
Compression mode : Lossy
Stream size : 413 MiB (9%)
Title : DD+ 5.1 English @ 640 kbps
Language : English
Service kind : Complete Main
Default : No
Forced : No

Text #1
ID : 4
Format : UTF-8
Codec ID : S_TEXT/UTF8
Codec ID/Info : UTF-8 Plain Text
Duration : 1 h 26 min
Bit rate : 1 b/s
Count of elements : 45
Stream size : 1.09 KiB (0%)
Title : Italiano - Forced
Language : Italian
Default : Yes
Forced : Yes

Text #2
ID : 5
Format : UTF-8
Codec ID : S_TEXT/UTF8
Codec ID/Info : UTF-8 Plain Text
Duration : 1 h 27 min
Bit rate : 54 b/s
Count of elements : 1120
Stream size : 34.9 KiB (0%)
Title : Italiano
Language : Italian
Default : No
Forced : No

Text #3
ID : 6
Format : UTF-8
Codec ID : S_TEXT/UTF8
Codec ID/Info : UTF-8 Plain Text
Duration : 1 h 29 min
Bit rate : 64 b/s
Count of elements : 1454
Stream size : 42.4 KiB (0%)
Title : English
Language : English
Default : No
Forced : No

Menu
00:00:00.000 : en:1. Amazon Original
00:00:05.000 : en:2. Ratings
00:00:15.000 : en:3. 30 years of work wasted
00:04:58.000 : en:4. Opening Credits
00:06:04.000 : en:5. It's rough on the streets of Brooklyn
00:10:41.000 : en:6. Advice from a wise Safta
00:15:15.000 : en:7. An intruder in the home
00:17:55.000 : en:8. A new assignment
00:21:24.000 : en:9. Grandmother's memorial and sitting Shiva
00:23:15.000 : en:10. A debt is owed
00:27:32.000 : en:11. A glimpse into the past
00:31:46.000 : en:12. Plumbing issues
00:34:37.000 : en:13. FBI Headquarters
00:37:14.000 : en:14. Jonah needs answers
00:39:28.000 : en:15. Investigating Gretel's death
00:41:42.000 : en:16. Jonah visits the Hell's Devils
00:43:28.000 : en:17. A purposeful kill
00:44:15.000 : en:18. A visit to the Congressman
00:47:47.000 : en:19. Detective work
00:49:45.000 : en:20. A deadly game of chess
00:56:23.000 : en:21. Jonah stumbles across something
01:01:44.000 : en:22. An interview at NASA
01:05:11.000 : en:23. Jonah follows a hunch
01:08:27.000 : en:24. Only the dead know the end of war
01:14:53.000 : en:25. Millie searches for the truth
01:17:02.000 : en:26. Doing laundry
01:17:57.000 : en:27. This is not murder, this is mitzvah
01:24:54.000 : en:28. Someone to watch over you
01:26:26.000 : en:29. Title Sequence
01:26:33.000 : en:30. A meeting with The Colonel
01:29:01.000 : en:31. End Credits





Hunters S01E01


Hunters S01E01


Hunters S01E01


Hunters S01E01


Hunters S01E01

All episodes