Featured TV Shows


Hunters S01E01

Posted By: Tavaz
Hunters S01E01

Hunters S01E01
MKV | 1280x720 | English | H265 @ 358 kbps | E-AC-3 @ 640 kbps | 1 h 30 min | 656 MiB
Subtitles: English
Genre: Crime, Drama


A diverse band of Nazi Hunters living in 1977 New York City discover that hundreds of high ranking Nazi officials are living among us and conspiring to create a Fourth Reich in the U.S. The eclectic team of Hunters set out on a bloody quest to bring the Nazis to justice and thwart their new genocidal plans.

eca4597b952f33f9196f5216104c5f9f.mkv (656.0 MB)



General
Unique ID : 249137153505667454883493713206656660194 (0xBB6E120704C7B107DEA0E751405C72E2)
Complete name : ./eca4597b952f33f9196f5216104c5f9f.mkv
Format : Matroska
Format version : Version 4 / Version 2
File size : 656 MiB
Duration : 1 h 30 min
Overall bit rate : 1 019 kb/s
Writing application : Lavf58.30.100
Writing library : Lavf58.30.100
ErrorDetectionType : Per level 1

Video
ID : 1
Format : HEVC
Format/Info : High Efficiency Video Coding
Format profile : Main 10@L3.1@Main
Codec ID : V_MPEGH/ISO/HEVC
Duration : 1 h 30 min
Bit rate : 359 kb/s
Width : 1 280 pixels
Height : 720 pixels
Display aspect ratio : 16:9
Frame rate mode : Constant
Frame rate : 23.976 (24000/1001) FPS
Color space : YUV
Chroma subsampling : 4:2:0
Bit depth : 10 bits
Bits/(Pixel*Frame) : 0.016
Stream size : 231 MiB (35%)
Writing library : x265 3.1+11-de920e0a3183:[Windows][GCC 9.1.1][64 bit] 10bit
Encoding settings : cpuid=1111039 / frame-threads=4 / numa-pools=16 / wpp / no-pmode / no-pme / no-psnr / no-ssim / log-level=2 / input-csp=1 / input-res=1280x720 / interlace=0 / total-frames=0 / level-idc=0 / high-tier=1 / uhd-bd=0 / ref=1 / no-allow-non-conformance / no-repeat-headers / annexb / no-aud / no-hrd / info / hash=0 / no-temporal-layers / open-gop / min-keyint=23 / keyint=250 / gop-lookahead=0 / bframes=3 / b-adapt=0 / b-pyramid / bframe-bias=0 / rc-lookahead=5 / lookahead-slices=4 / scenecut=0 / radl=0 / no-splice / no-intra-refresh / ctu=32 / min-cu-size=16 / no-rect / no-amp / max-tu-size=32 / tu-inter-depth=1 / tu-intra-depth=1 / limit-tu=0 / rdoq-level=0 / dynamic-rd=0.00 / no-ssim-rd / no-signhide / no-tskip / nr-intra=0 / nr-inter=0 / no-constrained-intra / strong-intra-smoothing / max-merge=2 / limit-refs=0 / no-limit-modes / me=0 / subme=0 / merange=57 / temporal-mvp / no-hme / no-weightp / no-weightb / no-analyze-src-pics / deblock=0:0 / no-sao / no-sao-non-deblock / rd=2 / early-skip / rskip / fast-intra / no-tskip-fast / no-cu-lossless / no-b-intra / no-splitrd-skip / rdpenalty=0 / psy-rd=2.00 / psy-rdoq=0.00 / no-rd-refine / no-lossless / cbqpoffs=0 / crqpoffs=0 / rc=crf / crf=22.0 / qcomp=0.60 / qpstep=4 / stats-write=0 / stats-read=0 / ipratio=1.40 / pbratio=1.30 / aq-mode=1 / aq-strength=0.00 / cutree / zone-count=0 / no-strict-cbr / qg-size=32 / no-rc-grain / qpmax=69 / qpmin=0 / no-const-vbv / sar=1 / overscan=0 / videoformat=5 / range=0 / colorprim=2 / transfer=2 / colormatrix=2 / chromaloc=0 / display-window=0cll=0,0 / min-luma=0 / max-luma=1023 / log2-max-poc-lsb=8 / vui-timing-info / vui-hrd-info / slices=1 / no-opt-qp-pps / no-opt-ref-list-length-pps / no-multi-pass-opt-rps / scenecut-bias=0.05 / no-opt-cu-delta-qp / no-aq-motion / no-hdr / no-hdr-opt / no-dhdr10-opt / no-idr-recovery-sei / analysis-reuse-level=5 / scale-factor=0 / refine-intra=0 / refine-inter=0 / refine-mv=0 / refine-ctu-distortion=0 / no-limit-sao / ctu-info=0 / no-lowpass-dct / refine-analysis-type=0 / copy-pic=1 / max-ausize-factor=1.0 / no-dynamic-refine / no-single-sei / no-hevc-aq / no-svt / no-field / qp-adaptation-range=1.00
Default : Yes
Forced : No
Color range : Limited
Statistics Tags Issue : mkvmerge v43.0.0 ('The Quartermaster') 64-bit 2020-02-21 08:32:50 / Lavf58.30.100
FromStats_BitRate : 2512870
FromStats_Duration : 01:30:00.646000000
FromStats_FrameCount : 129486
FromStats_StreamSize : 1696390118

Audio
ID : 2
Format : E-AC-3
Format/Info : Enhanced Audio Coding 3
Format settings, Endianness : Big
Codec ID : A_EAC3
Duration : 1 h 30 min
Bit rate mode : Constant
Bit rate : 640 kb/s
Channel(s) : 6 channels
Channel positions : Front: L C R, Side: L R, LFE
Sampling rate : 48.0 kHz
Frame rate : 187.500 FPS (256 SPF)
Bit depth : 32 bits
Compression mode : Lossy
Delay relative to video : 16 ms
Stream size : 412 MiB (63%)
Title : English
Language : English
Service kind : Complete Main
Default : Yes
Forced : No
Statistics Tags Issue : mkvmerge v43.0.0 ('The Quartermaster') 64-bit 2020-02-21 08:32:50 / Lavf58.30.100
FromStats_BitRate : 640000
FromStats_Duration : 01:30:00.656000000
FromStats_FrameCount : 168770
FromStats_StreamSize : 432051200

Text
ID : 3
Format : ASS
Codec ID : S_TEXT/ASS
Codec ID/Info : Advanced Sub Station Alpha
Compression mode : Lossless
Title : English [Forced]
Writing library : Lavc58.55.100 ssa
Language : English
Default : No
Forced : Yes
Statistics Tags Issue : mkvmerge v43.0.0 ('The Quartermaster') 64-bit 2020-02-21 08:32:50 / Lavf58.30.100
FromStats_BitRate : 0
FromStats_Duration : 00:53:27.163000000
FromStats_FrameCount : 8
FromStats_StreamSize : 131

Menu
00:00:00.000 : :30 years of work wasted
00:04:41.984 : :Opening Credits
00:05:47.984 : :It's rough on the streets of Brooklyn
00:10:24.984 : :Advice from a wise Safta
00:14:58.984 : :An intruder in the home
00:17:38.984 : :A new assignment
00:21:07.984 : :Grandmother's memorial and sitting Shiva
00:22:58.984 : :A debt is owed
00:27:15.984 : :A glimpse into the past
00:31:29.984 : :Plumbing issues
00:34:20.984 : :FBI Headquarters
00:36:57.984 : :Jonah needs answers
00:39:11.984 : :Investigating Gretel's death
00:41:25.984 : :Jonah visits the Hell's Devils
00:43:11.984 : :A purposeful kill
00:43:58.984 : :A visit to the Congressman
00:47:30.984 : :Detective work
00:49:28.984 : :A deadly game of chess
00:56:06.984 : :Jonah stumbles across something
01:01:27.984 : :An interview at NASA
01:04:54.984 : :Jonah follows a hunch
01:08:10.984 : :Only the dead know the end of war
01:14:36.984 : :Millie searches for the truth
01:16:45.984 : :Doing laundry
01:17:40.984 : :This is not murder, this is mitzvah
01:24:37.984 : :Someone to watch over you
01:26:09.984 : :Title Sequence
01:26:16.984 : :A meeting with The Colonel
01:28:44.984 : :End Credits





Hunters S01E01


Hunters S01E01


Hunters S01E01


Hunters S01E01


Hunters S01E01

All episodes