Featured TV Shows


Hunters S01E02

Posted By: Tavaz
720p (HD) / WEBRip IMDb
Hunters S01E02

Hunters S01E02
WEBRip | MKV | 1280x720 | English | H264 @ 2632 kbps | E-AC-3 @ 640 kbps | 1 h 2 min | 1.43 GiB
Subtitles: ภาษาไทย, العربية, 中文, Français, Deutsch, Suomi, Nederlands, Español, Polski, Italiano, Türkçe, Bahasa Indonesia, Português, Dansk, English, हिन्दी, 한국어, 日本語, Русский
Genre: Crime, Drama


A diverse band of Nazi Hunters living in 1977 New York City discover that hundreds of high ranking Nazi officials are living among us and conspiring to create a Fourth Reich in the U.S. The eclectic team of Hunters set out on a bloody quest to bring the Nazis to justice and thwart their new genocidal plans.

8782095d30c843fea92fce3bb4f2ccf7.mkv (1.4 GB)



General
Unique ID : 21190969565815929748126779283861275767 (0xFF13B76F27C300B830F7168153E0477)
Complete name : ./8782095d30c843fea92fce3bb4f2ccf7.mkv
Format : Matroska
Format version : Version 4 / Version 2
File size : 1.43 GiB
Duration : 1 h 2 min
Overall bit rate : 3 278 kb/s
Encoded date : UTC 2020-02-21 08:32:01
Writing application : mkvmerge v43.0.0 ('The Quartermaster') 64-bit
Writing library : libebml v1.3.10 + libmatroska v1.5.2

Video
ID : 1
Format : AVC
Format/Info : Advanced Video Codec
Format profile : High@L3.1
Format settings : CABAC / 4 Ref Frames
Format settings, CABAC : Yes
Format settings, RefFrames : 4 frames
Codec ID : V_MPEG4/ISO/AVC
Duration : 1 h 2 min
Bit rate mode : Constant
Bit rate : 2 632 kb/s
Nominal bit rate : 6 000 kb/s
Width : 1 280 pixels
Height : 720 pixels
Display aspect ratio : 16:9
Frame rate mode : Constant
Frame rate : 23.976 (24000/1001) FPS
Color space : YUV
Chroma subsampling : 4:2:0
Bit depth : 8 bits
Scan type : Progressive
Bits/(Pixel*Frame) : 0.119
Stream size : 1.15 GiB (80%)
Default : Yes
Forced : No
Color range : Limited
Color primaries : BT.709
Transfer characteristics : BT.709
Matrix coefficients : BT.709

Audio
ID : 2
Format : E-AC-3
Format/Info : Enhanced Audio Coding 3
Format settings, Endianness : Big
Codec ID : A_EAC3
Duration : 1 h 2 min
Bit rate mode : Constant
Bit rate : 640 kb/s
Channel(s) : 6 channels
Channel positions : Front: L C R, Side: L R, LFE
Sampling rate : 48.0 kHz
Frame rate : 187.500 FPS (256 SPF)
Compression mode : Lossy
Delay relative to video : 16 ms
Stream size : 286 MiB (20%)
Title : English
Language : English
Service kind : Complete Main
Default : Yes
Forced : No

Text #1
ID : 3
Format : UTF-8
Codec ID : S_TEXT/UTF8
Codec ID/Info : UTF-8 Plain Text
Duration : 40 min 30 s
Bit rate : 2 b/s
Count of elements : 36
Stream size : 610 Bytes (0%)
Title : English [Forced]
Language : English
Default : No
Forced : Yes

Text #2
ID : 4
Format : UTF-8
Codec ID : S_TEXT/UTF8
Codec ID/Info : UTF-8 Plain Text
Duration : 1 h 1 min
Bit rate : 58 b/s
Count of elements : 930
Stream size : 26.4 KiB (0%)
Title : English
Language : English
Default : No
Forced : No

Text #3
ID : 5
Format : UTF-8
Codec ID : S_TEXT/UTF8
Codec ID/Info : UTF-8 Plain Text
Duration : 1 h 2 min
Bit rate : 66 b/s
Count of elements : 1066
Stream size : 30.3 KiB (0%)
Title : English [SDH]
Language : English
Default : No
Forced : No

Text #4
ID : 6
Format : UTF-8
Codec ID : S_TEXT/UTF8
Codec ID/Info : UTF-8 Plain Text
Duration : 1 h 0 min
Bit rate : 95 b/s
Count of elements : 887
Stream size : 42.5 KiB (0%)
Title : Arabic
Language : Arabic
Default : No
Forced : No

Text #5
ID : 7
Format : UTF-8
Codec ID : S_TEXT/UTF8
Codec ID/Info : UTF-8 Plain Text
Duration : 1 h 0 min
Bit rate : 55 b/s
Count of elements : 875
Stream size : 24.7 KiB (0%)
Title : Danish
Language : Danish
Default : No
Forced : No

Text #6
ID : 8
Format : UTF-8
Codec ID : S_TEXT/UTF8
Codec ID/Info : UTF-8 Plain Text
Duration : 57 min 12 s
Bit rate : 58 b/s
Count of elements : 705
Stream size : 24.7 KiB (0%)
Title : German
Language : German
Default : No
Forced : No

Text #7
ID : 9
Format : UTF-8
Codec ID : S_TEXT/UTF8
Codec ID/Info : UTF-8 Plain Text
Duration : 1 h 0 min
Bit rate : 58 b/s
Count of elements : 877
Stream size : 25.9 KiB (0%)
Title : Castilian
Language : Spanish
Default : No
Forced : No

Text #8
ID : 10
Format : UTF-8
Codec ID : S_TEXT/UTF8
Codec ID/Info : UTF-8 Plain Text
Duration : 1 h 0 min
Bit rate : 56 b/s
Count of elements : 882
Stream size : 25.1 KiB (0%)
Title : Spanish
Language : Spanish
Default : No
Forced : No

Text #9
ID : 11
Format : UTF-8
Codec ID : S_TEXT/UTF8
Codec ID/Info : UTF-8 Plain Text
Duration : 1 h 0 min
Bit rate : 52 b/s
Count of elements : 879
Stream size : 23.5 KiB (0%)
Title : Finnish
Language : Finnish
Default : No
Forced : No

Text #10
ID : 12
Format : UTF-8
Codec ID : S_TEXT/UTF8
Codec ID/Info : UTF-8 Plain Text
Duration : 1 h 0 min
Bit rate : 57 b/s
Count of elements : 879
Stream size : 25.7 KiB (0%)
Title : French
Language : French
Default : No
Forced : No

Text #11
ID : 13
Format : UTF-8
Codec ID : S_TEXT/UTF8
Codec ID/Info : UTF-8 Plain Text
Duration : 1 h 0 min
Bit rate : 152 b/s
Count of elements : 887
Stream size : 67.9 KiB (0%)
Title : Hindi
Language : Hindi
Default : No
Forced : No

Text #12
ID : 14
Format : UTF-8
Codec ID : S_TEXT/UTF8
Codec ID/Info : UTF-8 Plain Text
Duration : 1 h 0 min
Bit rate : 52 b/s
Count of elements : 879
Stream size : 23.4 KiB (0%)
Title : Indonesian
Language : Indonesian
Default : No
Forced : No

Text #13
ID : 15
Format : UTF-8
Codec ID : S_TEXT/UTF8
Codec ID/Info : UTF-8 Plain Text
Duration : 1 h 0 min
Bit rate : 55 b/s
Count of elements : 878
Stream size : 24.9 KiB (0%)
Title : Italian
Language : Italian
Default : No
Forced : No

Text #14
ID : 16
Format : UTF-8
Codec ID : S_TEXT/UTF8
Codec ID/Info : UTF-8 Plain Text
Duration : 1 h 1 min
Bit rate : 55 b/s
Count of elements : 763
Stream size : 24.9 KiB (0%)
Title : Japanese
Language : Japanese
Default : No
Forced : No

Text #15
ID : 17
Format : UTF-8
Codec ID : S_TEXT/UTF8
Codec ID/Info : UTF-8 Plain Text
Duration : 1 h 0 min
Bit rate : 60 b/s
Count of elements : 887
Stream size : 26.9 KiB (0%)
Title : Korean
Language : Korean
Default : No
Forced : No

Text #16
ID : 18
Format : UTF-8
Codec ID : S_TEXT/UTF8
Codec ID/Info : UTF-8 Plain Text
Duration : 1 h 0 min
Bit rate : 51 b/s
Count of elements : 879
Stream size : 23.0 KiB (0%)
Title : Dutch
Language : Dutch
Default : No
Forced : No

Text #17
ID : 19
Format : UTF-8
Codec ID : S_TEXT/UTF8
Codec ID/Info : UTF-8 Plain Text
Duration : 1 h 0 min
Bit rate : 53 b/s
Count of elements : 876
Stream size : 24.0 KiB (0%)
Title : Polish
Language : Polish
Default : No
Forced : No

Text #18
ID : 20
Format : UTF-8
Codec ID : S_TEXT/UTF8
Codec ID/Info : UTF-8 Plain Text
Duration : 1 h 0 min
Bit rate : 57 b/s
Count of elements : 883
Stream size : 25.7 KiB (0%)
Title : Brazilian Portuguese
Language : Portuguese
Default : No
Forced : No

Text #19
ID : 21
Format : UTF-8
Codec ID : S_TEXT/UTF8
Codec ID/Info : UTF-8 Plain Text
Duration : 1 h 0 min
Bit rate : 100 b/s
Count of elements : 886
Stream size : 45.0 KiB (0%)
Title : Russian
Language : Russian
Default : No
Forced : No

Text #20
ID : 22
Format : UTF-8
Codec ID : S_TEXT/UTF8
Codec ID/Info : UTF-8 Plain Text
Duration : 1 h 0 min
Bit rate : 179 b/s
Count of elements : 887
Stream size : 80.3 KiB (0%)
Title : Tamil
Language : Tamil
Default : No
Forced : No

Text #21
ID : 23
Format : UTF-8
Codec ID : S_TEXT/UTF8
Codec ID/Info : UTF-8 Plain Text
Duration : 1 h 0 min
Bit rate : 157 b/s
Count of elements : 887
Stream size : 70.2 KiB (0%)
Title : Telugu
Language : Telugu
Default : No
Forced : No

Text #22
ID : 24
Format : UTF-8
Codec ID : S_TEXT/UTF8
Codec ID/Info : UTF-8 Plain Text
Duration : 1 h 0 min
Bit rate : 137 b/s
Count of elements : 887
Stream size : 61.2 KiB (0%)
Title : Thai
Language : Thai
Default : No
Forced : No

Text #23
ID : 25
Format : UTF-8
Codec ID : S_TEXT/UTF8
Codec ID/Info : UTF-8 Plain Text
Duration : 1 h 0 min
Bit rate : 51 b/s
Count of elements : 879
Stream size : 23.0 KiB (0%)
Title : Turkish
Language : Turkish
Default : No
Forced : No

Text #24
ID : 26
Format : UTF-8
Codec ID : S_TEXT/UTF8
Codec ID/Info : UTF-8 Plain Text
Duration : 1 h 0 min
Bit rate : 56 b/s
Count of elements : 887
Stream size : 25.4 KiB (0%)
Title : Chinese (Simplified)
Language : Chinese
Default : No
Forced : No

Text #25
ID : 27
Format : UTF-8
Codec ID : S_TEXT/UTF8
Codec ID/Info : UTF-8 Plain Text
Duration : 1 h 0 min
Bit rate : 53 b/s
Count of elements : 898
Stream size : 24.0 KiB (0%)
Title : Chinese (Traditional)
Language : Chinese
Default : No
Forced : No

Menu
00:00:00.000 : en:Hava Nagila
00:02:47.984 : en:Opening Credits
00:03:53.984 : en:A coded message
00:06:45.984 : en:An introduction to the hunters
00:08:54.984 : en:The Ark
00:10:34.984 : en:Monsters are everywhere
00:12:26.984 : en:The process of evolution
00:14:34.984 : en:First with Frist
00:15:38.984 : en:The story of Karl Holdstedder
00:18:48.984 : en:An appointment with a matchmaker
00:27:09.984 : en:The files are gone
00:27:37.984 : en:Jonah's friends are worried
00:28:30.984 : en:An interview with Gretel's family
00:32:00.984 : en:The Senator gets caught in the act
00:33:29.984 : en:Going after Holstedder
00:36:54.984 : en:A trial for his crimes
00:46:33.984 : en:The truth about justice
00:51:36.984 : en:Both sides are hunting
00:57:45.984 : en:The ringing wont stop
01:00:37.984 : en:An evil plot
01:01:13.984 : en:End Credits





Hunters S01E02


Hunters S01E02


Hunters S01E02


Hunters S01E02


Hunters S01E02

All episodes