Index
# A B C D E F G H I J K L M N O P Q R S T U V W Y Z
Tags
Language
Tags

Featured TV Shows


Hunters S01E05

Posted By: Tavaz
Hunters S01E05

Hunters S01E05
MKV | 1280x720 | English | H265 @ 463 kbps | E-AC-3 @ 640 kbps | 1 h 0 min | 485 MiB
Subtitles: English
Genre: Crime, Drama


A diverse band of Nazi Hunters living in 1977 New York City discover that hundreds of high ranking Nazi officials are living among us and conspiring to create a Fourth Reich in the U.S. The eclectic team of Hunters set out on a bloody quest to bring the Nazis to justice and thwart their new genocidal plans.

9f076d45de77319302c42f26a7d25f6b.mkv (485.0 MB)



General
Unique ID : 303318009505109147789562066252199051637 (0xE430EC78C4C1416AFA55AD8478A34175)
Complete name : ./9f076d45de77319302c42f26a7d25f6b.mkv
Format : Matroska
Format version : Version 4 / Version 2
File size : 485 MiB
Duration : 1 h 0 min
Overall bit rate : 1 126 kb/s
Writing application : Lavf58.30.100
Writing library : Lavf58.30.100
ErrorDetectionType : Per level 1

Video
ID : 1
Format : HEVC
Format/Info : High Efficiency Video Coding
Format profile : Main 10@L3.1@Main
Codec ID : V_MPEGH/ISO/HEVC
Duration : 1 h 0 min
Bit rate : 464 kb/s
Width : 1 280 pixels
Height : 720 pixels
Display aspect ratio : 16:9
Frame rate mode : Constant
Frame rate : 23.976 (24000/1001) FPS
Color space : YUV
Chroma subsampling : 4:2:0
Bit depth : 10 bits
Bits/(Pixel*Frame) : 0.021
Stream size : 200 MiB (41%)
Writing library : x265 3.1+11-de920e0a3183:[Windows][GCC 9.1.1][64 bit] 10bit
Encoding settings : cpuid=1111039 / frame-threads=4 / numa-pools=16 / wpp / no-pmode / no-pme / no-psnr / no-ssim / log-level=2 / input-csp=1 / input-res=1280x720 / interlace=0 / total-frames=0 / level-idc=0 / high-tier=1 / uhd-bd=0 / ref=1 / no-allow-non-conformance / no-repeat-headers / annexb / no-aud / no-hrd / info / hash=0 / no-temporal-layers / open-gop / min-keyint=23 / keyint=250 / gop-lookahead=0 / bframes=3 / b-adapt=0 / b-pyramid / bframe-bias=0 / rc-lookahead=5 / lookahead-slices=4 / scenecut=0 / radl=0 / no-splice / no-intra-refresh / ctu=32 / min-cu-size=16 / no-rect / no-amp / max-tu-size=32 / tu-inter-depth=1 / tu-intra-depth=1 / limit-tu=0 / rdoq-level=0 / dynamic-rd=0.00 / no-ssim-rd / no-signhide / no-tskip / nr-intra=0 / nr-inter=0 / no-constrained-intra / strong-intra-smoothing / max-merge=2 / limit-refs=0 / no-limit-modes / me=0 / subme=0 / merange=57 / temporal-mvp / no-hme / no-weightp / no-weightb / no-analyze-src-pics / deblock=0:0 / no-sao / no-sao-non-deblock / rd=2 / early-skip / rskip / fast-intra / no-tskip-fast / no-cu-lossless / no-b-intra / no-splitrd-skip / rdpenalty=0 / psy-rd=2.00 / psy-rdoq=0.00 / no-rd-refine / no-lossless / cbqpoffs=0 / crqpoffs=0 / rc=crf / crf=22.0 / qcomp=0.60 / qpstep=4 / stats-write=0 / stats-read=0 / ipratio=1.40 / pbratio=1.30 / aq-mode=1 / aq-strength=0.00 / cutree / zone-count=0 / no-strict-cbr / qg-size=32 / no-rc-grain / qpmax=69 / qpmin=0 / no-const-vbv / sar=1 / overscan=0 / videoformat=5 / range=0 / colorprim=2 / transfer=2 / colormatrix=2 / chromaloc=0 / display-window=0cll=0,0 / min-luma=0 / max-luma=1023 / log2-max-poc-lsb=8 / vui-timing-info / vui-hrd-info / slices=1 / no-opt-qp-pps / no-opt-ref-list-length-pps / no-multi-pass-opt-rps / scenecut-bias=0.05 / no-opt-cu-delta-qp / no-aq-motion / no-hdr / no-hdr-opt / no-dhdr10-opt / no-idr-recovery-sei / analysis-reuse-level=5 / scale-factor=0 / refine-intra=0 / refine-inter=0 / refine-mv=0 / refine-ctu-distortion=0 / no-limit-sao / ctu-info=0 / no-lowpass-dct / refine-analysis-type=0 / copy-pic=1 / max-ausize-factor=1.0 / no-dynamic-refine / no-single-sei / no-hevc-aq / no-svt / no-field / qp-adaptation-range=1.00
Default : Yes
Forced : No
Color range : Limited
Statistics Tags Issue : mkvmerge v43.0.0 ('The Quartermaster') 64-bit 2020-02-21 08:31:51 / Lavf58.30.100
FromStats_BitRate : 2561541
FromStats_Duration : 01:00:13.026000000
FromStats_FrameCount : 86626
FromStats_StreamSize : 1156864423

Audio
ID : 2
Format : E-AC-3
Format/Info : Enhanced Audio Coding 3
Format settings, Endianness : Big
Codec ID : A_EAC3
Duration : 1 h 0 min
Bit rate mode : Constant
Bit rate : 640 kb/s
Channel(s) : 6 channels
Channel positions : Front: L C R, Side: L R, LFE
Sampling rate : 48.0 kHz
Frame rate : 187.500 FPS (256 SPF)
Bit depth : 32 bits
Compression mode : Lossy
Delay relative to video : 16 ms
Stream size : 276 MiB (57%)
Title : English
Language : English
Service kind : Complete Main
Default : Yes
Forced : No
Statistics Tags Issue : mkvmerge v43.0.0 ('The Quartermaster') 64-bit 2020-02-21 08:31:51 / Lavf58.30.100
FromStats_BitRate : 640000
FromStats_Duration : 01:00:13.040000000
FromStats_FrameCount : 112907
FromStats_StreamSize : 289041920

Text
ID : 3
Format : ASS
Codec ID : S_TEXT/ASS
Codec ID/Info : Advanced Sub Station Alpha
Compression mode : Lossless
Title : English [Forced]
Writing library : Lavc58.55.100 ssa
Language : English
Default : No
Forced : Yes
Statistics Tags Issue : mkvmerge v43.0.0 ('The Quartermaster') 64-bit 2020-02-21 08:31:51 / Lavf58.30.100
FromStats_BitRate : 2
FromStats_Duration : 00:52:43.452000000
FromStats_FrameCount : 15
FromStats_StreamSize : 411

Menu
00:00:00.000 : :Experimenting in South America
00:00:59.984 : :Opening Credits
00:02:06.984 : :Bleeding for a worthy cause
00:03:37.984 : :Brawn over brains
00:09:13.984 : :Hunting The Ghost
00:12:04.984 : :Millie meets with Danny
00:14:41.984 : :Packing for Alabama
00:18:35.984 : :Following orders
00:20:00.984 : :Surveillance
00:21:31.984 : :Biff meets with The Colonel
00:23:29.984 : :Lonny gets some bad news
00:24:20.984 : :Scoping out Dieter Zweigelt
00:26:47.984 : :A meeting with a rabbi
00:30:27.984 : :Following Offerman
00:30:49.984 : :A spirited debate
00:33:24.984 : :Meeting in a bar
00:34:40.984 : :Interrogation techniques
00:37:44.984 : :War PTSD
00:40:30.984 : :A flip flop vote
00:42:28.984 : :Tobias must return home
00:42:52.984 : :The recruitment of Nazis
00:48:26.984 : :A change in plans
00:50:35.984 : :The snake speaks poison
00:53:40.984 : :A threat
00:55:16.984 : :Finding the snakes secrets
00:56:49.984 : :The unexpected happens
00:58:57.984 : :End Credits





Hunters S01E05


Hunters S01E05


Hunters S01E05


Hunters S01E05


Hunters S01E05

All episodes