Index
# A B C D E F G H I J K L M N O P Q R S T U V W Y Z
Tags
Language
Tags

Featured TV Shows


Hunters S01E05

Posted By: Tavaz
1080p (FullHD) / WEBRip IMDb
Hunters S01E05

Hunters S01E05
WEBRip | MKV | 1920x1080 | English | H264 @ 5483 kbps | E-AC-3 @ 640 kbps | 1 h 0 min | 2.58 GiB
Subtitles: ภาษาไทย, العربية, 中文, Français, Deutsch, Suomi, Nederlands, Español, Polski, Italiano, Türkçe, Bahasa Indonesia, Português, Dansk, English, हिन्दी, 한국어, 日本語, Русский
Genre: Crime, Drama


A diverse band of Nazi Hunters living in 1977 New York City discover that hundreds of high ranking Nazi officials are living among us and conspiring to create a Fourth Reich in the U.S. The eclectic team of Hunters set out on a bloody quest to bring the Nazis to justice and thwart their new genocidal plans.

5227998ac2e7401db265fa81e88c7cb5.mkv (2.6 GB)



General
Unique ID : 243673610001926717164466146971597165429 (0xB751D489089150240DD9D1EAF75C5375)
Complete name : ./5227998ac2e7401db265fa81e88c7cb5.mkv
Format : Matroska
Format version : Version 4 / Version 2
File size : 2.58 GiB
Duration : 1 h 0 min
Overall bit rate : 6 129 kb/s
Encoded date : UTC 2020-02-21 08:45:31
Writing application : mkvmerge v43.0.0 ('The Quartermaster') 64-bit
Writing library : libebml v1.3.10 + libmatroska v1.5.2

Video
ID : 1
Format : AVC
Format/Info : Advanced Video Codec
Format profile : High@L4
Format settings : CABAC / 4 Ref Frames
Format settings, CABAC : Yes
Format settings, RefFrames : 4 frames
Codec ID : V_MPEG4/ISO/AVC
Duration : 1 h 0 min
Bit rate mode : Constant
Bit rate : 5 483 kb/s
Nominal bit rate : 10 000 kb/s
Width : 1 920 pixels
Height : 1 080 pixels
Display aspect ratio : 16:9
Frame rate mode : Constant
Frame rate : 23.976 (24000/1001) FPS
Color space : YUV
Chroma subsampling : 4:2:0
Bit depth : 8 bits
Scan type : Progressive
Bits/(Pixel*Frame) : 0.110
Stream size : 2.31 GiB (89%)
Default : Yes
Forced : No
Color range : Limited
Color primaries : BT.709
Transfer characteristics : BT.709
Matrix coefficients : BT.709

Audio
ID : 2
Format : E-AC-3
Format/Info : Enhanced Audio Coding 3
Format settings, Endianness : Big
Codec ID : A_EAC3
Duration : 1 h 0 min
Bit rate mode : Constant
Bit rate : 640 kb/s
Channel(s) : 6 channels
Channel positions : Front: L C R, Side: L R, LFE
Sampling rate : 48.0 kHz
Frame rate : 187.500 FPS (256 SPF)
Compression mode : Lossy
Delay relative to video : 16 ms
Stream size : 276 MiB (10%)
Title : English
Language : English
Service kind : Complete Main
Default : Yes
Forced : No

Text #1
ID : 3
Format : UTF-8
Codec ID : S_TEXT/UTF8
Codec ID/Info : UTF-8 Plain Text
Duration : 22 min 13 s
Bit rate : 2 b/s
Count of elements : 15
Stream size : 411 Bytes (0%)
Title : English [Forced]
Language : English
Default : No
Forced : Yes

Text #2
ID : 4
Format : UTF-8
Codec ID : S_TEXT/UTF8
Codec ID/Info : UTF-8 Plain Text
Duration : 58 min 19 s
Bit rate : 63 b/s
Count of elements : 904
Stream size : 27.2 KiB (0%)
Title : English
Language : English
Default : No
Forced : No

Text #3
ID : 5
Format : UTF-8
Codec ID : S_TEXT/UTF8
Codec ID/Info : UTF-8 Plain Text
Duration : 58 min 49 s
Bit rate : 68 b/s
Count of elements : 995
Stream size : 29.4 KiB (0%)
Title : English [SDH]
Language : English
Default : No
Forced : No

Text #4
ID : 6
Format : UTF-8
Codec ID : S_TEXT/UTF8
Codec ID/Info : UTF-8 Plain Text
Duration : 58 min 14 s
Bit rate : 100 b/s
Count of elements : 855
Stream size : 42.9 KiB (0%)
Title : Arabic
Language : Arabic
Default : No
Forced : No

Text #5
ID : 7
Format : UTF-8
Codec ID : S_TEXT/UTF8
Codec ID/Info : UTF-8 Plain Text
Duration : 56 min 19 s
Bit rate : 62 b/s
Count of elements : 844
Stream size : 25.6 KiB (0%)
Title : Danish
Language : Danish
Default : No
Forced : No

Text #6
ID : 8
Format : UTF-8
Codec ID : S_TEXT/UTF8
Codec ID/Info : UTF-8 Plain Text
Duration : 56 min 2 s
Bit rate : 62 b/s
Count of elements : 666
Stream size : 25.7 KiB (0%)
Title : German
Language : German
Default : No
Forced : No

Text #7
ID : 9
Format : UTF-8
Codec ID : S_TEXT/UTF8
Codec ID/Info : UTF-8 Plain Text
Duration : 56 min 2 s
Bit rate : 65 b/s
Count of elements : 847
Stream size : 27.0 KiB (0%)
Title : Castilian
Language : Spanish
Default : No
Forced : No

Text #8
ID : 10
Format : UTF-8
Codec ID : S_TEXT/UTF8
Codec ID/Info : UTF-8 Plain Text
Duration : 56 min 19 s
Bit rate : 62 b/s
Count of elements : 851
Stream size : 25.8 KiB (0%)
Title : Spanish
Language : Spanish
Default : No
Forced : No

Text #9
ID : 11
Format : UTF-8
Codec ID : S_TEXT/UTF8
Codec ID/Info : UTF-8 Plain Text
Duration : 56 min 19 s
Bit rate : 55 b/s
Count of elements : 850
Stream size : 22.9 KiB (0%)
Title : Finnish
Language : Finnish
Default : No
Forced : No

Text #10
ID : 12
Format : UTF-8
Codec ID : S_TEXT/UTF8
Codec ID/Info : UTF-8 Plain Text
Duration : 56 min 19 s
Bit rate : 64 b/s
Count of elements : 845
Stream size : 26.4 KiB (0%)
Title : French
Language : French
Default : No
Forced : No

Text #11
ID : 13
Format : UTF-8
Codec ID : S_TEXT/UTF8
Codec ID/Info : UTF-8 Plain Text
Duration : 58 min 14 s
Bit rate : 163 b/s
Count of elements : 855
Stream size : 69.9 KiB (0%)
Title : Hindi
Language : Hindi
Default : No
Forced : No

Text #12
ID : 14
Format : UTF-8
Codec ID : S_TEXT/UTF8
Codec ID/Info : UTF-8 Plain Text
Duration : 56 min 19 s
Bit rate : 58 b/s
Count of elements : 849
Stream size : 24.3 KiB (0%)
Title : Indonesian
Language : Indonesian
Default : No
Forced : No

Text #13
ID : 15
Format : UTF-8
Codec ID : S_TEXT/UTF8
Codec ID/Info : UTF-8 Plain Text
Duration : 56 min 19 s
Bit rate : 63 b/s
Count of elements : 850
Stream size : 26.3 KiB (0%)
Title : Italian
Language : Italian
Default : No
Forced : No

Text #14
ID : 16
Format : UTF-8
Codec ID : S_TEXT/UTF8
Codec ID/Info : UTF-8 Plain Text
Duration : 58 min 14 s
Bit rate : 59 b/s
Count of elements : 803
Stream size : 25.3 KiB (0%)
Title : Japanese
Language : Japanese
Default : No
Forced : No

Text #15
ID : 17
Format : UTF-8
Codec ID : S_TEXT/UTF8
Codec ID/Info : UTF-8 Plain Text
Duration : 58 min 14 s
Bit rate : 65 b/s
Count of elements : 855
Stream size : 27.9 KiB (0%)
Title : Korean
Language : Korean
Default : No
Forced : No

Text #16
ID : 18
Format : UTF-8
Codec ID : S_TEXT/UTF8
Codec ID/Info : UTF-8 Plain Text
Duration : 56 min 19 s
Bit rate : 57 b/s
Count of elements : 850
Stream size : 23.7 KiB (0%)
Title : Dutch
Language : Dutch
Default : No
Forced : No

Text #17
ID : 19
Format : UTF-8
Codec ID : S_TEXT/UTF8
Codec ID/Info : UTF-8 Plain Text
Duration : 58 min 14 s
Bit rate : 58 b/s
Count of elements : 845
Stream size : 25.0 KiB (0%)
Title : Polish
Language : Polish
Default : No
Forced : No

Text #18
ID : 20
Format : UTF-8
Codec ID : S_TEXT/UTF8
Codec ID/Info : UTF-8 Plain Text
Duration : 58 min 14 s
Bit rate : 61 b/s
Count of elements : 849
Stream size : 26.2 KiB (0%)
Title : Brazilian Portuguese
Language : Portuguese
Default : No
Forced : No

Text #19
ID : 21
Format : UTF-8
Codec ID : S_TEXT/UTF8
Codec ID/Info : UTF-8 Plain Text
Duration : 58 min 14 s
Bit rate : 107 b/s
Count of elements : 851
Stream size : 45.8 KiB (0%)
Title : Russian
Language : Russian
Default : No
Forced : No

Text #20
ID : 22
Format : UTF-8
Codec ID : S_TEXT/UTF8
Codec ID/Info : UTF-8 Plain Text
Duration : 58 min 14 s
Bit rate : 189 b/s
Count of elements : 855
Stream size : 80.8 KiB (0%)
Title : Tamil
Language : Tamil
Default : No
Forced : No

Text #21
ID : 23
Format : UTF-8
Codec ID : S_TEXT/UTF8
Codec ID/Info : UTF-8 Plain Text
Duration : 58 min 14 s
Bit rate : 169 b/s
Count of elements : 855
Stream size : 72.3 KiB (0%)
Title : Telugu
Language : Telugu
Default : No
Forced : No

Text #22
ID : 24
Format : UTF-8
Codec ID : S_TEXT/UTF8
Codec ID/Info : UTF-8 Plain Text
Duration : 58 min 14 s
Bit rate : 143 b/s
Count of elements : 854
Stream size : 61.2 KiB (0%)
Title : Thai
Language : Thai
Default : No
Forced : No

Text #23
ID : 25
Format : UTF-8
Codec ID : S_TEXT/UTF8
Codec ID/Info : UTF-8 Plain Text
Duration : 56 min 19 s
Bit rate : 58 b/s
Count of elements : 849
Stream size : 24.2 KiB (0%)
Title : Turkish
Language : Turkish
Default : No
Forced : No

Text #24
ID : 26
Format : UTF-8
Codec ID : S_TEXT/UTF8
Codec ID/Info : UTF-8 Plain Text
Duration : 58 min 14 s
Bit rate : 59 b/s
Count of elements : 855
Stream size : 25.3 KiB (0%)
Title : Chinese (Simplified)
Language : Chinese
Default : No
Forced : No

Text #25
ID : 27
Format : UTF-8
Codec ID : S_TEXT/UTF8
Codec ID/Info : UTF-8 Plain Text
Duration : 58 min 14 s
Bit rate : 56 b/s
Count of elements : 855
Stream size : 24.1 KiB (0%)
Title : Chinese (Traditional)
Language : Chinese
Default : No
Forced : No

Menu
00:00:00.000 : en:Experimenting in South America
00:00:59.984 : en:Opening Credits
00:02:06.984 : en:Bleeding for a worthy cause
00:03:37.984 : en:Brawn over brains
00:09:13.984 : en:Hunting The Ghost
00:12:04.984 : en:Millie meets with Danny
00:14:41.984 : en:Packing for Alabama
00:18:35.984 : en:Following orders
00:20:00.984 : en:Surveillance
00:21:31.984 : en:Biff meets with The Colonel
00:23:29.984 : en:Lonny gets some bad news
00:24:20.984 : en:Scoping out Dieter Zweigelt
00:26:47.984 : en:A meeting with a rabbi
00:30:27.984 : en:Following Offerman
00:30:49.984 : en:A spirited debate
00:33:24.984 : en:Meeting in a bar
00:34:40.984 : en:Interrogation techniques
00:37:44.984 : en:War PTSD
00:40:30.984 : en:A flip flop vote
00:42:28.984 : en:Tobias must return home
00:42:52.984 : en:The recruitment of Nazis
00:48:26.984 : en:A change in plans
00:50:35.984 : en:The snake speaks poison
00:53:40.984 : en:A threat
00:55:16.984 : en:Finding the snakes secrets
00:56:49.984 : en:The unexpected happens
00:58:57.984 : en:End Credits





Hunters S01E05


Hunters S01E05


Hunters S01E05


Hunters S01E05


Hunters S01E05

All episodes