Featured TV Shows


Hunters S01E06

Posted By: Tavaz
1080p (FullHD) / WEB-DL IMDb
Hunters S01E06

Hunters S01E06
WEB-DL | MKV | 1920x1080 | English | H264 @ 5369 kbps | E-AC-3 @ 640 kbps | 1 h 0 min | 2.54 GiB
Subtitles: ภาษาไทย, Français, Español, 日本語, עברית, 한국어, Русский, Nederlands, Dansk, Bahasa Indonesia, Bokmål, 中文, Suomi, Polski, Türkçe, English, हिन्दी, العربية, Deutsch, Svenska, Italiano, Português
Genre: Crime, Drama


A diverse band of Nazi Hunters living in 1977 New York City discover that hundreds of high ranking Nazi officials are living among us and conspiring to create a Fourth Reich in the U.S. The eclectic team of Hunters set out on a bloody quest to bring the Nazis to justice and thwart their new genocidal plans.

ff0fe0f22be90d92b57b541fd34bc9b9.mkv (2.5 GB)



General
Unique ID : 316589620674240230751318982922079181161 (0xEE2CF16BFA80B5616C101A4BE20E1969)
Complete name : ./ff0fe0f22be90d92b57b541fd34bc9b9.mkv
Format : Matroska
Format version : Version 4 / Version 2
File size : 2.54 GiB
Duration : 1 h 0 min
Overall bit rate : 6 015 kb/s
Encoded date : UTC 2020-02-21 00:53:37
Writing application : mkvmerge v42.0.0 ('Overtime') 64-bit
Writing library : libebml v1.3.10 + libmatroska v1.5.2

Video
ID : 1
Format : AVC
Format/Info : Advanced Video Codec
Format profile : High@L4
Format settings : CABAC / 4 Ref Frames
Format settings, CABAC : Yes
Format settings, RefFrames : 4 frames
Codec ID : V_MPEG4/ISO/AVC
Duration : 1 h 0 min
Bit rate mode : Constant
Bit rate : 5 370 kb/s
Nominal bit rate : 10 000 kb/s
Width : 1 920 pixels
Height : 1 080 pixels
Display aspect ratio : 16:9
Frame rate mode : Constant
Frame rate : 23.976 (24000/1001) FPS
Color space : YUV
Chroma subsampling : 4:2:0
Bit depth : 8 bits
Scan type : Progressive
Bits/(Pixel*Frame) : 0.108
Stream size : 2.27 GiB (89%)
Default : Yes
Forced : No
Color range : Limited
Color primaries : BT.709
Transfer characteristics : BT.709
Matrix coefficients : BT.709

Audio
ID : 2
Format : E-AC-3
Format/Info : Enhanced Audio Coding 3
Format settings, Endianness : Big
Codec ID : A_EAC3
Duration : 1 h 0 min
Bit rate mode : Constant
Bit rate : 640 kb/s
Channel(s) : 6 channels
Channel positions : Front: L C R, Side: L R, LFE
Sampling rate : 48.0 kHz
Frame rate : 187.500 FPS (256 SPF)
Compression mode : Lossy
Stream size : 277 MiB (11%)
Language : English
Service kind : Complete Main
Default : Yes
Forced : No

Text #1
ID : 3
Format : UTF-8
Codec ID : S_TEXT/UTF8
Codec ID/Info : UTF-8 Plain Text
Duration : 30 min 36 s
Bit rate : 9 b/s
Count of elements : 98
Stream size : 2.24 KiB (0%)
Title : Forced
Language : English
Default : Yes
Forced : Yes

Text #2
ID : 4
Format : UTF-8
Codec ID : S_TEXT/UTF8
Codec ID/Info : UTF-8 Plain Text
Duration : 58 min 50 s
Bit rate : 63 b/s
Count of elements : 965
Stream size : 27.2 KiB (0%)
Title : SDH
Language : English
Default : No
Forced : No

Text #3
ID : 5
Format : UTF-8
Codec ID : S_TEXT/UTF8
Codec ID/Info : UTF-8 Plain Text
Duration : 56 min 29 s
Bit rate : 90 b/s
Count of elements : 765
Stream size : 37.4 KiB (0%)
Language : Arabic
Default : No
Forced : No

Text #4
ID : 6
Format : UTF-8
Codec ID : S_TEXT/UTF8
Codec ID/Info : UTF-8 Plain Text
Duration : 56 min 29 s
Bit rate : 54 b/s
Count of elements : 748
Stream size : 22.5 KiB (0%)
Language : Danish
Default : No
Forced : No

Text #5
ID : 7
Format : UTF-8
Codec ID : S_TEXT/UTF8
Codec ID/Info : UTF-8 Plain Text
Duration : 56 min 31 s
Bit rate : 51 b/s
Count of elements : 594
Stream size : 21.4 KiB (0%)
Language : German
Default : No
Forced : No

Text #6
ID : 8
Format : UTF-8
Codec ID : S_TEXT/UTF8
Codec ID/Info : UTF-8 Plain Text
Duration : 56 min 29 s
Bit rate : 54 b/s
Count of elements : 759
Stream size : 22.6 KiB (0%)
Title : Latinoamérica
Language : Spanish
Default : No
Forced : No

Text #7
ID : 9
Format : UTF-8
Codec ID : S_TEXT/UTF8
Codec ID/Info : UTF-8 Plain Text
Duration : 56 min 12 s
Bit rate : 58 b/s
Count of elements : 755
Stream size : 24.2 KiB (0%)
Title : España
Language : Spanish
Default : No
Forced : No

Text #8
ID : 10
Format : UTF-8
Codec ID : S_TEXT/UTF8
Codec ID/Info : UTF-8 Plain Text
Duration : 56 min 29 s
Bit rate : 49 b/s
Count of elements : 760
Stream size : 20.7 KiB (0%)
Language : Finnish
Default : No
Forced : No

Text #9
ID : 11
Format : UTF-8
Codec ID : S_TEXT/UTF8
Codec ID/Info : UTF-8 Plain Text
Duration : 56 min 29 s
Bit rate : 56 b/s
Count of elements : 758
Stream size : 23.3 KiB (0%)
Language : French
Default : No
Forced : No

Text #10
ID : 12
Format : UTF-8
Codec ID : S_TEXT/UTF8
Codec ID/Info : UTF-8 Plain Text
Duration : 56 min 29 s
Bit rate : 84 b/s
Count of elements : 765
Stream size : 35.2 KiB (0%)
Language : Hebrew
Default : No
Forced : No

Text #11
ID : 13
Format : UTF-8
Codec ID : S_TEXT/UTF8
Codec ID/Info : UTF-8 Plain Text
Duration : 56 min 29 s
Bit rate : 147 b/s
Count of elements : 765
Stream size : 61.2 KiB (0%)
Language : Hindi
Default : No
Forced : No

Text #12
ID : 14
Format : UTF-8
Codec ID : S_TEXT/UTF8
Codec ID/Info : UTF-8 Plain Text
Duration : 56 min 29 s
Bit rate : 49 b/s
Count of elements : 760
Stream size : 20.4 KiB (0%)
Language : Indonesian
Default : No
Forced : No

Text #13
ID : 15
Format : UTF-8
Codec ID : S_TEXT/UTF8
Codec ID/Info : UTF-8 Plain Text
Duration : 56 min 29 s
Bit rate : 55 b/s
Count of elements : 759
Stream size : 23.0 KiB (0%)
Language : Italian
Default : No
Forced : No

Text #14
ID : 16
Format : UTF-8
Codec ID : S_TEXT/UTF8
Codec ID/Info : UTF-8 Plain Text
Duration : 56 min 29 s
Bit rate : 51 b/s
Count of elements : 675
Stream size : 21.2 KiB (0%)
Language : Japanese
Default : No
Forced : No

Text #15
ID : 17
Format : UTF-8
Codec ID : S_TEXT/UTF8
Codec ID/Info : UTF-8 Plain Text
Duration : 56 min 29 s
Bit rate : 60 b/s
Count of elements : 765
Stream size : 24.9 KiB (0%)
Language : Korean
Default : No
Forced : No

Text #16
ID : 18
Format : UTF-8
Codec ID : S_TEXT/UTF8
Codec ID/Info : UTF-8 Plain Text
Duration : 56 min 29 s
Bit rate : 54 b/s
Count of elements : 759
Stream size : 22.7 KiB (0%)
Language : Norwegian Bokmal
Default : No
Forced : No

Text #17
ID : 19
Format : UTF-8
Codec ID : S_TEXT/UTF8
Codec ID/Info : UTF-8 Plain Text
Duration : 56 min 29 s
Bit rate : 51 b/s
Count of elements : 759
Stream size : 21.1 KiB (0%)
Language : Dutch
Default : No
Forced : No

Text #18
ID : 20
Format : UTF-8
Codec ID : S_TEXT/UTF8
Codec ID/Info : UTF-8 Plain Text
Duration : 56 min 29 s
Bit rate : 52 b/s
Count of elements : 752
Stream size : 21.9 KiB (0%)
Language : Polish
Default : No
Forced : No

Text #19
ID : 21
Format : UTF-8
Codec ID : S_TEXT/UTF8
Codec ID/Info : UTF-8 Plain Text
Duration : 56 min 29 s
Bit rate : 54 b/s
Count of elements : 759
Stream size : 22.5 KiB (0%)
Language : Portuguese
Default : No
Forced : No

Text #20
ID : 22
Format : UTF-8
Codec ID : S_TEXT/UTF8
Codec ID/Info : UTF-8 Plain Text
Duration : 56 min 29 s
Bit rate : 97 b/s
Count of elements : 764
Stream size : 40.2 KiB (0%)
Language : Russian
Default : No
Forced : No

Text #21
ID : 23
Format : UTF-8
Codec ID : S_TEXT/UTF8
Codec ID/Info : UTF-8 Plain Text
Duration : 56 min 29 s
Bit rate : 49 b/s
Count of elements : 753
Stream size : 20.7 KiB (0%)
Language : Swedish
Default : No
Forced : No

Text #22
ID : 24
Format : UTF-8
Codec ID : S_TEXT/UTF8
Codec ID/Info : UTF-8 Plain Text
Duration : 56 min 29 s
Bit rate : 179 b/s
Count of elements : 765
Stream size : 74.3 KiB (0%)
Language : Tamil
Default : No
Forced : No

Text #23
ID : 25
Format : UTF-8
Codec ID : S_TEXT/UTF8
Codec ID/Info : UTF-8 Plain Text
Duration : 56 min 29 s
Bit rate : 156 b/s
Count of elements : 765
Stream size : 64.6 KiB (0%)
Language : Telugu
Default : No
Forced : No

Text #24
ID : 26
Format : UTF-8
Codec ID : S_TEXT/UTF8
Codec ID/Info : UTF-8 Plain Text
Duration : 56 min 29 s
Bit rate : 131 b/s
Count of elements : 765
Stream size : 54.4 KiB (0%)
Language : Thai
Default : No
Forced : No

Text #25
ID : 27
Format : UTF-8
Codec ID : S_TEXT/UTF8
Codec ID/Info : UTF-8 Plain Text
Duration : 56 min 29 s
Bit rate : 52 b/s
Count of elements : 760
Stream size : 21.8 KiB (0%)
Language : Turkish
Default : No
Forced : No

Text #26
ID : 28
Format : UTF-8
Codec ID : S_TEXT/UTF8
Codec ID/Info : UTF-8 Plain Text
Duration : 56 min 29 s
Bit rate : 54 b/s
Count of elements : 765
Stream size : 22.5 KiB (0%)
Title : 中文(简体)
Language : Chinese
Default : No
Forced : No

Text #27
ID : 29
Format : UTF-8
Codec ID : S_TEXT/UTF8
Codec ID/Info : UTF-8 Plain Text
Duration : 56 min 29 s
Bit rate : 50 b/s
Count of elements : 765
Stream size : 21.1 KiB (0%)
Title : 中文(繁體)
Language : Chinese
Default : No
Forced : No

Menu
00:00:00.000 : en:Amazon Original
00:00:05.000 : en:Ratings
00:00:15.000 : en:The comforts of home
00:01:25.000 : en:Opening Credits
00:02:30.000 : en:The strength to survive
00:04:59.000 : en:Everyone's in recovery
00:08:42.000 : en:Millie meets with Danny
00:10:04.000 : en:Jonah tells Cheeks the truth
00:12:58.000 : en:Biff tells the President to sign the bill
00:15:33.000 : en:Learning to survive
00:18:32.000 : en:Joe visits an old friend
00:21:50.000 : en:A new assignment
00:23:35.000 : en:Getting ready for the wedding
00:25:42.000 : en:Manual for the Coming Race
00:27:10.000 : en:Moritz and Harriet talk
00:28:13.000 : en:Operation Paperclip
00:30:32.000 : en:Celebrate the light
00:34:58.000 : en:Biff makes a threat
00:36:34.000 : en:Jonah gives his speech and prayer
00:40:20.000 : en:Millie tells the truth
00:41:37.000 : en:A day of celebration
00:46:54.000 : en:Monsters created by war
00:50:03.000 : en:Millie does what she has to
00:52:52.000 : en:A wedding present
00:54:52.000 : en:Breaking in
00:59:09.000 : en:End Credits





Hunters S01E06


Hunters S01E06


Hunters S01E06


Hunters S01E06


Hunters S01E06

All episodes