Featured TV Shows


Hunters S01E07

Posted By: Tavaz
1080p (FullHD) / WEB-DL IMDb
Hunters S01E07

Hunters S01E07
WEB-DL | MKV | 1920x1080 | English | H264 @ 4811 kbps | E-AC-3 @ 640 kbps | 1 h 0 min | 2.29 GiB
Subtitles: ภาษาไทย, Français, Español, 日本語, עברית, 한국어, Русский, Nederlands, Dansk, Bahasa Indonesia, Bokmål, 中文, Suomi, Polski, Türkçe, English, हिन्दी, العربية, Deutsch, Svenska, Italiano, Português
Genre: Crime, Drama


A diverse band of Nazi Hunters living in 1977 New York City discover that hundreds of high ranking Nazi officials are living among us and conspiring to create a Fourth Reich in the U.S. The eclectic team of Hunters set out on a bloody quest to bring the Nazis to justice and thwart their new genocidal plans.

12d841f476efae12b060a871f1738bb8.mkv (2.3 GB)



General
Unique ID : 163399895206112302031767912395880539065 (0x7AEDACD3ECCC8116E25916242CF023B9)
Complete name : ./12d841f476efae12b060a871f1738bb8.mkv
Format : Matroska
Format version : Version 4 / Version 2
File size : 2.29 GiB
Duration : 1 h 0 min
Overall bit rate : 5 458 kb/s
Encoded date : UTC 2020-02-21 00:59:16
Writing application : mkvmerge v42.0.0 ('Overtime') 64-bit
Writing library : libebml v1.3.10 + libmatroska v1.5.2

Video
ID : 1
Format : AVC
Format/Info : Advanced Video Codec
Format profile : High@L4
Format settings : CABAC / 4 Ref Frames
Format settings, CABAC : Yes
Format settings, RefFrames : 4 frames
Codec ID : V_MPEG4/ISO/AVC
Duration : 1 h 0 min
Bit rate mode : Constant
Bit rate : 4 812 kb/s
Nominal bit rate : 10 000 kb/s
Width : 1 920 pixels
Height : 1 080 pixels
Display aspect ratio : 16:9
Frame rate mode : Constant
Frame rate : 23.976 (24000/1001) FPS
Color space : YUV
Chroma subsampling : 4:2:0
Bit depth : 8 bits
Scan type : Progressive
Bits/(Pixel*Frame) : 0.097
Stream size : 2.02 GiB (88%)
Default : Yes
Forced : No
Color range : Limited
Color primaries : BT.709
Transfer characteristics : BT.709
Matrix coefficients : BT.709

Audio
ID : 2
Format : E-AC-3
Format/Info : Enhanced Audio Coding 3
Format settings, Endianness : Big
Codec ID : A_EAC3
Duration : 1 h 0 min
Bit rate mode : Constant
Bit rate : 640 kb/s
Channel(s) : 6 channels
Channel positions : Front: L C R, Side: L R, LFE
Sampling rate : 48.0 kHz
Frame rate : 187.500 FPS (256 SPF)
Compression mode : Lossy
Stream size : 275 MiB (12%)
Language : English
Service kind : Complete Main
Default : Yes
Forced : No

Text #1
ID : 3
Format : UTF-8
Codec ID : S_TEXT/UTF8
Codec ID/Info : UTF-8 Plain Text
Duration : 43 min 49 s
Bit rate : 0 b/s
Count of elements : 19
Stream size : 316 Bytes (0%)
Title : Forced
Language : English
Default : Yes
Forced : Yes

Text #2
ID : 4
Format : UTF-8
Codec ID : S_TEXT/UTF8
Codec ID/Info : UTF-8 Plain Text
Duration : 58 min 25 s
Bit rate : 67 b/s
Count of elements : 1005
Stream size : 28.8 KiB (0%)
Title : SDH
Language : English
Default : No
Forced : No

Text #3
ID : 5
Format : UTF-8
Codec ID : S_TEXT/UTF8
Codec ID/Info : UTF-8 Plain Text
Duration : 57 min 22 s
Bit rate : 97 b/s
Count of elements : 827
Stream size : 40.9 KiB (0%)
Language : Arabic
Default : No
Forced : No

Text #4
ID : 6
Format : UTF-8
Codec ID : S_TEXT/UTF8
Codec ID/Info : UTF-8 Plain Text
Duration : 57 min 22 s
Bit rate : 57 b/s
Count of elements : 813
Stream size : 24.3 KiB (0%)
Language : Danish
Default : No
Forced : No

Text #5
ID : 7
Format : UTF-8
Codec ID : S_TEXT/UTF8
Codec ID/Info : UTF-8 Plain Text
Duration : 57 min 13 s
Bit rate : 57 b/s
Count of elements : 636
Stream size : 24.0 KiB (0%)
Language : German
Default : No
Forced : No

Text #6
ID : 8
Format : UTF-8
Codec ID : S_TEXT/UTF8
Codec ID/Info : UTF-8 Plain Text
Duration : 57 min 22 s
Bit rate : 61 b/s
Count of elements : 825
Stream size : 25.8 KiB (0%)
Title : Latinoamérica
Language : Spanish
Default : No
Forced : No

Text #7
ID : 9
Format : UTF-8
Codec ID : S_TEXT/UTF8
Codec ID/Info : UTF-8 Plain Text
Duration : 57 min 22 s
Bit rate : 63 b/s
Count of elements : 812
Stream size : 26.7 KiB (0%)
Title : España
Language : Spanish
Default : No
Forced : No

Text #8
ID : 10
Format : UTF-8
Codec ID : S_TEXT/UTF8
Codec ID/Info : UTF-8 Plain Text
Duration : 57 min 22 s
Bit rate : 53 b/s
Count of elements : 823
Stream size : 22.7 KiB (0%)
Language : Finnish
Default : No
Forced : No

Text #9
ID : 11
Format : UTF-8
Codec ID : S_TEXT/UTF8
Codec ID/Info : UTF-8 Plain Text
Duration : 57 min 22 s
Bit rate : 59 b/s
Count of elements : 816
Stream size : 24.9 KiB (0%)
Language : French
Default : No
Forced : No

Text #10
ID : 12
Format : UTF-8
Codec ID : S_TEXT/UTF8
Codec ID/Info : UTF-8 Plain Text
Duration : 57 min 22 s
Bit rate : 90 b/s
Count of elements : 828
Stream size : 38.1 KiB (0%)
Language : Hebrew
Default : No
Forced : No

Text #11
ID : 13
Format : UTF-8
Codec ID : S_TEXT/UTF8
Codec ID/Info : UTF-8 Plain Text
Duration : 57 min 22 s
Bit rate : 158 b/s
Count of elements : 828
Stream size : 66.8 KiB (0%)
Language : Hindi
Default : No
Forced : No

Text #12
ID : 14
Format : UTF-8
Codec ID : S_TEXT/UTF8
Codec ID/Info : UTF-8 Plain Text
Duration : 57 min 22 s
Bit rate : 54 b/s
Count of elements : 824
Stream size : 22.8 KiB (0%)
Language : Indonesian
Default : No
Forced : No

Text #13
ID : 15
Format : UTF-8
Codec ID : S_TEXT/UTF8
Codec ID/Info : UTF-8 Plain Text
Duration : 57 min 22 s
Bit rate : 60 b/s
Count of elements : 820
Stream size : 25.5 KiB (0%)
Language : Italian
Default : No
Forced : No

Text #14
ID : 16
Format : UTF-8
Codec ID : S_TEXT/UTF8
Codec ID/Info : UTF-8 Plain Text
Duration : 57 min 22 s
Bit rate : 54 b/s
Count of elements : 722
Stream size : 22.8 KiB (0%)
Language : Japanese
Default : No
Forced : No

Text #15
ID : 17
Format : UTF-8
Codec ID : S_TEXT/UTF8
Codec ID/Info : UTF-8 Plain Text
Duration : 57 min 22 s
Bit rate : 67 b/s
Count of elements : 828
Stream size : 28.3 KiB (0%)
Language : Korean
Default : No
Forced : No

Text #16
ID : 18
Format : UTF-8
Codec ID : S_TEXT/UTF8
Codec ID/Info : UTF-8 Plain Text
Duration : 57 min 22 s
Bit rate : 59 b/s
Count of elements : 822
Stream size : 25.1 KiB (0%)
Language : Norwegian Bokmal
Default : No
Forced : No

Text #17
ID : 19
Format : UTF-8
Codec ID : S_TEXT/UTF8
Codec ID/Info : UTF-8 Plain Text
Duration : 57 min 22 s
Bit rate : 54 b/s
Count of elements : 822
Stream size : 22.8 KiB (0%)
Language : Dutch
Default : No
Forced : No

Text #18
ID : 20
Format : UTF-8
Codec ID : S_TEXT/UTF8
Codec ID/Info : UTF-8 Plain Text
Duration : 57 min 22 s
Bit rate : 55 b/s
Count of elements : 813
Stream size : 23.2 KiB (0%)
Language : Polish
Default : No
Forced : No

Text #19
ID : 21
Format : UTF-8
Codec ID : S_TEXT/UTF8
Codec ID/Info : UTF-8 Plain Text
Duration : 57 min 22 s
Bit rate : 59 b/s
Count of elements : 820
Stream size : 25.0 KiB (0%)
Language : Portuguese
Default : No
Forced : No

Text #20
ID : 22
Format : UTF-8
Codec ID : S_TEXT/UTF8
Codec ID/Info : UTF-8 Plain Text
Duration : 57 min 22 s
Bit rate : 104 b/s
Count of elements : 824
Stream size : 44.0 KiB (0%)
Language : Russian
Default : No
Forced : No

Text #21
ID : 23
Format : UTF-8
Codec ID : S_TEXT/UTF8
Codec ID/Info : UTF-8 Plain Text
Duration : 57 min 22 s
Bit rate : 53 b/s
Count of elements : 813
Stream size : 22.6 KiB (0%)
Language : Swedish
Default : No
Forced : No

Text #22
ID : 24
Format : UTF-8
Codec ID : S_TEXT/UTF8
Codec ID/Info : UTF-8 Plain Text
Duration : 57 min 22 s
Bit rate : 192 b/s
Count of elements : 827
Stream size : 80.8 KiB (0%)
Language : Tamil
Default : No
Forced : No

Text #23
ID : 25
Format : UTF-8
Codec ID : S_TEXT/UTF8
Codec ID/Info : UTF-8 Plain Text
Duration : 57 min 22 s
Bit rate : 166 b/s
Count of elements : 827
Stream size : 70.1 KiB (0%)
Language : Telugu
Default : No
Forced : No

Text #24
ID : 26
Format : UTF-8
Codec ID : S_TEXT/UTF8
Codec ID/Info : UTF-8 Plain Text
Duration : 57 min 22 s
Bit rate : 138 b/s
Count of elements : 828
Stream size : 58.2 KiB (0%)
Language : Thai
Default : No
Forced : No

Text #25
ID : 27
Format : UTF-8
Codec ID : S_TEXT/UTF8
Codec ID/Info : UTF-8 Plain Text
Duration : 57 min 22 s
Bit rate : 55 b/s
Count of elements : 823
Stream size : 23.5 KiB (0%)
Language : Turkish
Default : No
Forced : No

Text #26
ID : 28
Format : UTF-8
Codec ID : S_TEXT/UTF8
Codec ID/Info : UTF-8 Plain Text
Duration : 57 min 22 s
Bit rate : 57 b/s
Count of elements : 828
Stream size : 24.0 KiB (0%)
Title : 中文(简体)
Language : Chinese
Default : No
Forced : No

Text #27
ID : 29
Format : UTF-8
Codec ID : S_TEXT/UTF8
Codec ID/Info : UTF-8 Plain Text
Duration : 57 min 22 s
Bit rate : 54 b/s
Count of elements : 828
Stream size : 22.8 KiB (0%)
Title : 中文(繁體)
Language : Chinese
Default : No
Forced : No

Menu
00:00:00.000 : en:Amazon Original
00:00:05.000 : en:Ratings
00:00:15.000 : en:An unexpected gift
00:01:27.000 : en:Opening Credits
00:02:32.000 : en:Salvaging the wreckage
00:03:38.000 : en:Bed time stories
00:06:13.000 : en:Jonah wants answers
00:07:24.000 : en:Signing the bill into law
00:08:03.000 : en:Confronting Moritz
00:09:29.000 : en:Group therapy sessions
00:13:32.000 : en:Trying to do what needs to be done
00:16:03.000 : en:Get creative with the truth
00:18:03.000 : en:Who is the revenge for?
00:19:17.000 : en:Chasing The Ghost
00:25:13.000 : en:A reporter starts digging
00:27:19.000 : en:Cracking the code
00:31:16.000 : en:The FBI arrives
00:33:44.000 : en:An unexpected phone call
00:34:46.000 : en:Confronting the past
00:39:28.000 : en:Joe issues a warning
00:40:49.000 : en:An FBI interrogation
00:42:08.000 : en:An intruder
00:43:33.000 : en:Choosing to do the right thing
00:44:39.000 : en:We wear different faces to protect those we love
00:46:08.000 : en:Putting together the pieces
00:48:06.000 : en:There are Nazis among us
00:50:36.000 : en:Bombs across New York
00:55:54.000 : en:A city-wide blackout
00:58:52.000 : en:End Credits





Hunters S01E07


Hunters S01E07


Hunters S01E07


Hunters S01E07


Hunters S01E07

All episodes