Featured TV Shows


Hunters S01E09

Posted By: Tavaz
Hunters S01E09

Hunters S01E09
MKV | 1280x720 | English | H265 @ 393 kbps | E-AC-3 @ 640 kbps | 56 min 40 s | 427 MiB
Subtitles: English
Genre: Crime, Drama


A diverse band of Nazi Hunters living in 1977 New York City discover that hundreds of high ranking Nazi officials are living among us and conspiring to create a Fourth Reich in the U.S. The eclectic team of Hunters set out on a bloody quest to bring the Nazis to justice and thwart their new genocidal plans.

0c3005e640b9853a5a040bf25a638a82.mkv (427.4 MB)



General
Unique ID : 297537090391231277133218366227275284271 (0xDFD78F2767D840A6707DAAB438C37F2F)
Complete name : ./0c3005e640b9853a5a040bf25a638a82.mkv
Format : Matroska
Format version : Version 4 / Version 2
File size : 427 MiB
Duration : 56 min 40 s
Overall bit rate : 1 055 kb/s
Writing application : Lavf58.30.100
Writing library : Lavf58.30.100
ErrorDetectionType : Per level 1

Video
ID : 1
Format : HEVC
Format/Info : High Efficiency Video Coding
Format profile : Main 10@L3.1@Main
Codec ID : V_MPEGH/ISO/HEVC
Duration : 56 min 40 s
Bit rate : 394 kb/s
Width : 1 280 pixels
Height : 720 pixels
Display aspect ratio : 16:9
Frame rate mode : Constant
Frame rate : 23.976 (24000/1001) FPS
Color space : YUV
Chroma subsampling : 4:2:0
Bit depth : 10 bits
Bits/(Pixel*Frame) : 0.018
Stream size : 160 MiB (37%)
Writing library : x265 3.1+11-de920e0a3183:[Windows][GCC 9.1.1][64 bit] 10bit
Encoding settings : cpuid=1111039 / frame-threads=4 / numa-pools=16 / wpp / no-pmode / no-pme / no-psnr / no-ssim / log-level=2 / input-csp=1 / input-res=1280x720 / interlace=0 / total-frames=0 / level-idc=0 / high-tier=1 / uhd-bd=0 / ref=1 / no-allow-non-conformance / no-repeat-headers / annexb / no-aud / no-hrd / info / hash=0 / no-temporal-layers / open-gop / min-keyint=23 / keyint=250 / gop-lookahead=0 / bframes=3 / b-adapt=0 / b-pyramid / bframe-bias=0 / rc-lookahead=5 / lookahead-slices=4 / scenecut=0 / radl=0 / no-splice / no-intra-refresh / ctu=32 / min-cu-size=16 / no-rect / no-amp / max-tu-size=32 / tu-inter-depth=1 / tu-intra-depth=1 / limit-tu=0 / rdoq-level=0 / dynamic-rd=0.00 / no-ssim-rd / no-signhide / no-tskip / nr-intra=0 / nr-inter=0 / no-constrained-intra / strong-intra-smoothing / max-merge=2 / limit-refs=0 / no-limit-modes / me=0 / subme=0 / merange=57 / temporal-mvp / no-hme / no-weightp / no-weightb / no-analyze-src-pics / deblock=0:0 / no-sao / no-sao-non-deblock / rd=2 / early-skip / rskip / fast-intra / no-tskip-fast / no-cu-lossless / no-b-intra / no-splitrd-skip / rdpenalty=0 / psy-rd=2.00 / psy-rdoq=0.00 / no-rd-refine / no-lossless / cbqpoffs=0 / crqpoffs=0 / rc=crf / crf=22.0 / qcomp=0.60 / qpstep=4 / stats-write=0 / stats-read=0 / ipratio=1.40 / pbratio=1.30 / aq-mode=1 / aq-strength=0.00 / cutree / zone-count=0 / no-strict-cbr / qg-size=32 / no-rc-grain / qpmax=69 / qpmin=0 / no-const-vbv / sar=1 / overscan=0 / videoformat=5 / range=0 / colorprim=2 / transfer=2 / colormatrix=2 / chromaloc=0 / display-window=0cll=0,0 / min-luma=0 / max-luma=1023 / log2-max-poc-lsb=8 / vui-timing-info / vui-hrd-info / slices=1 / no-opt-qp-pps / no-opt-ref-list-length-pps / no-multi-pass-opt-rps / scenecut-bias=0.05 / no-opt-cu-delta-qp / no-aq-motion / no-hdr / no-hdr-opt / no-dhdr10-opt / no-idr-recovery-sei / analysis-reuse-level=5 / scale-factor=0 / refine-intra=0 / refine-inter=0 / refine-mv=0 / refine-ctu-distortion=0 / no-limit-sao / ctu-info=0 / no-lowpass-dct / refine-analysis-type=0 / copy-pic=1 / max-ausize-factor=1.0 / no-dynamic-refine / no-single-sei / no-hevc-aq / no-svt / no-field / qp-adaptation-range=1.00
Default : Yes
Forced : No
Color range : Limited
Statistics Tags Issue : mkvmerge v43.0.0 ('The Quartermaster') 64-bit 2020-02-21 08:30:55 / Lavf58.30.100
FromStats_BitRate : 2428723
FromStats_Duration : 00:56:39.980000000
FromStats_FrameCount : 81518
FromStats_StreamSize : 1032201241

Audio
ID : 2
Format : E-AC-3
Format/Info : Enhanced Audio Coding 3
Format settings, Endianness : Big
Codec ID : A_EAC3
Duration : 56 min 40 s
Bit rate mode : Constant
Bit rate : 640 kb/s
Channel(s) : 6 channels
Channel positions : Front: L C R, Side: L R, LFE
Sampling rate : 48.0 kHz
Frame rate : 187.500 FPS (256 SPF)
Bit depth : 32 bits
Compression mode : Lossy
Delay relative to video : 16 ms
Stream size : 259 MiB (61%)
Title : English
Language : English
Service kind : Complete Main
Default : Yes
Forced : No
Statistics Tags Issue : mkvmerge v43.0.0 ('The Quartermaster') 64-bit 2020-02-21 08:30:55 / Lavf58.30.100
FromStats_BitRate : 640000
FromStats_Duration : 00:56:40.016000000
FromStats_FrameCount : 106250
FromStats_StreamSize : 272000000

Text
ID : 3
Format : ASS
Codec ID : S_TEXT/ASS
Codec ID/Info : Advanced Sub Station Alpha
Compression mode : Lossless
Title : English [Forced]
Writing library : Lavc58.55.100 ssa
Language : English
Default : No
Forced : Yes
Statistics Tags Issue : mkvmerge v43.0.0 ('The Quartermaster') 64-bit 2020-02-21 08:30:55 / Lavf58.30.100
FromStats_BitRate : 47
FromStats_Duration : 00:45:53.084000000
FromStats_FrameCount : 5
FromStats_StreamSize : 58

Menu
00:00:00.000 : :A weapon to be used
00:01:51.984 : :Opening Credits
00:02:58.984 : :Jonah has changed
00:04:00.984 : :The complexity of corn syrup
00:05:56.984 : :Harriet is struggling
00:06:52.984 : :Making people disappear
00:09:51.984 : :Trying to find The Colonel
00:11:11.984 : :Looking for Jonah
00:12:58.984 : :Putting together the pieces
00:14:44.984 : :Before and after
00:18:56.984 : :The fittest has survived
00:20:45.984 : :Infiltrating Schidler Corp.
00:26:01.984 : :Millie confronts Grimsby
00:28:23.984 : :Carol and Cheeks find Jonah
00:29:49.984 : :Playing by the rules
00:32:37.984 : :Blood and soil
00:34:45.984 : :Breaking in to Schidler
00:44:21.984 : :Running into complications
00:48:39.984 : :Cutting the head off the snake
00:55:23.984 : :End Credits





Hunters S01E09


Hunters S01E09


Hunters S01E09


Hunters S01E09


Hunters S01E09

All episodes