Index
# A B C D E F G H I J K L M N O P Q R S T U V W Y Z
Tags
Language
Tags

Featured TV Shows


Hunting Hitler S03E00

Posted By: Tavaz
1080p (FullHD) / HDTV IMDb
Hunting Hitler S03E00

Hunting Hitler S03E00
HDTV | MKV | 1920x1080 | English | H264 @ 4464 kbps | MPEG Audio @ 192 kbps | 40 min 49 s | 1.33 GiB
Genre: Documentary


An FBI cold case that has laid dormant for 70 years, leads a group of world-renown investigators on the ultimate manhunt to finally answer the question: Did Adolf Hitler survive World War II?

ab30d811c6d4a11605a3e7171410aa48.mkv (1.3 GB)



General
Unique ID : 27180589690057042705195946607976674359 (0x1472CA8965BDE4A9EAA03E5CC5087437)
Complete name : ./ab30d811c6d4a11605a3e7171410aa48.mkv
Format : Matroska
Format version : Version 4 / Version 2
File size : 1.33 GiB
Duration : 40 min 49 s
Overall bit rate : 4 658 kb/s
Encoded date : UTC 2021-02-11 14:09:12
Writing application : mkvmerge v28.2.0 ('The Awakening') 64-bit
Writing library : libebml v1.3.6 + libmatroska v1.4.9

Video
ID : 1
Format : AVC
Format/Info : Advanced Video Codec
Format profile : High@L4
Format settings : CABAC / 4 Ref Frames
Format settings, CABAC : Yes
Format settings, RefFrames : 4 frames
Codec ID : V_MPEG4/ISO/AVC
Duration : 40 min 49 s
Bit rate : 4 464 kb/s
Width : 1 920 pixels
Height : 1 080 pixels
Display aspect ratio : 16:9
Frame rate mode : Variable
Frame rate : 25.027 FPS
Original frame rate : 25.000 FPS
Standard : Component
Color space : YUV
Chroma subsampling : 4:2:0
Bit depth : 8 bits
Scan type : MBAFF
Bits/(Pixel*Frame) : 0.086
Stream size : 1.27 GiB (96%)
Default : Yes
Forced : No
Color range : Limited
Color primaries : BT.709
Transfer characteristics : BT.709
Matrix coefficients : BT.709

Audio
ID : 2
Format : MPEG Audio
Format version : Version 1
Format profile : Layer 2
Codec ID : A_MPEG/L2
Codec ID/Hint : MP2
Duration : 40 min 49 s
Bit rate mode : Constant
Bit rate : 192 kb/s
Channel(s) : 2 channels
Sampling rate : 48.0 kHz
Frame rate : 41.667 FPS (1152 SPF)
Compression mode : Lossy
Stream size : 56.1 MiB (4%)
Language : English
Default : Yes
Forced : No





Hunting Hitler S03E00


Hunting Hitler S03E00


Hunting Hitler S03E00


Hunting Hitler S03E00


Hunting Hitler S03E00

All episodes