Index
# A B C D E F G H I J K L M N O P Q R S T U V W Y Z
Tags
Language
Tags

Featured TV Shows


Hunting Hitler S03E03

Posted By: Tavaz
1080p (FullHD) / WEB-DL IMDb
Hunting Hitler S03E03

Hunting Hitler S03E03
WEB-DL | MKV | 1920x1080 | English | H264 @ 12207 kbps | E-AC-3 @ 224 kbps | 43 min 12 s | 3.75 GiB
Subtitles: English
Genre: Documentary

An FBI cold case that has laid dormant for 70 years, leads a group of world-renown investigators on the ultimate manhunt to finally answer the question: Did Adolf Hitler survive World War II?

a339c3d26470443db98a4895354be4f3.mkv (3.8 GB)



General
Unique ID : 281877592866215724861464453732705816792 (0xD40FA6511E914466F664912A275CD0D8)
Complete name : ./a339c3d26470443db98a4895354be4f3.mkv
Format : Matroska
Format version : Version 4 / Version 2
File size : 3.75 GiB
Duration : 43 min 12 s
Overall bit rate mode : Variable
Overall bit rate : 12.4 Mb/s
Encoded date : UTC 2018-07-14 16:25:25
Writing application : mkvmerge v20.0.0 ('I Am The Sun') 64-bit
Writing library : libebml v1.3.5 + libmatroska v1.4.8

Video
ID : 1
Format : AVC
Format/Info : Advanced Video Codec
Format profile : High@L4
Format settings : CABAC / 4 Ref Frames
Format settings, CABAC : Yes
Format settings, RefFrames : 4 frames
Codec ID : V_MPEG4/ISO/AVC
Duration : 43 min 12 s
Bit rate mode : Variable
Bit rate : 12.2 Mb/s
Maximum bit rate : 15.0 Mb/s
Width : 1 920 pixels
Height : 1 080 pixels
Display aspect ratio : 16:9
Frame rate mode : Constant
Frame rate : 23.976 (24000/1001) FPS
Color space : YUV
Chroma subsampling : 4:2:0
Bit depth : 8 bits
Scan type : Progressive
Bits/(Pixel*Frame) : 0.246
Stream size : 3.68 GiB (98%)
Default : Yes
Forced : No
Color range : Limited
Color primaries : BT.709
Transfer characteristics : BT.709
Matrix coefficients : BT.709

Audio
ID : 2
Format : E-AC-3
Format/Info : Enhanced Audio Coding 3
Format settings, Endianness : Big
Codec ID : A_EAC3
Duration : 43 min 12 s
Bit rate mode : Constant
Bit rate : 224 kb/s
Channel(s) : 2 channels
Channel positions : Front: L R
Sampling rate : 48.0 kHz
Frame rate : 187.500 FPS (256 SPF)
Compression mode : Lossy
Stream size : 69.2 MiB (2%)
Language : English
Service kind : Complete Main
Default : Yes
Forced : No

Text #1
ID : 3
Format : UTF-8
Codec ID : S_TEXT/UTF8
Codec ID/Info : UTF-8 Plain Text
Duration : 43 min 5 s
Bit rate : 90 b/s
Count of elements : 806
Stream size : 28.5 KiB (0%)
Language : English
Default : No
Forced : No

Text #2
ID : 4
Format : UTF-8
Codec ID : S_TEXT/UTF8
Codec ID/Info : UTF-8 Plain Text
Duration : 43 min 5 s
Bit rate : 90 b/s
Count of elements : 807
Stream size : 28.6 KiB (0%)
Title : SDH
Language : English
Default : No
Forced : No





Hunting Hitler S03E03


Hunting Hitler S03E03


Hunting Hitler S03E03


Hunting Hitler S03E03


Hunting Hitler S03E03

All episodes