Featured TV Shows


The Middle S02E12

Posted By: Tavaz
1080p (FullHD) / WEBRip IMDb
The Middle S02E12

The Middle S02E12
WEBRip | MOV | 1920x1080 | H264 @ 4789 kbps | AAC @ 126 kbps | 23 min 3 s | 811 MiB
Genre: Comedy

The daily mishaps of a married woman and her semi-dysfunctional family and their attempts to survive life in general in the city of Orson, Indiana.

70d3fd5947f81ce9432bfec73f50a28a622dd73c.srt (33.8 KB)
70d3fd5947f81ce9432bfec73f50a28a622dd73c.mp4 (811.3 MB)



General
Complete name : ./70d3fd5947f81ce9432bfec73f50a28a622dd73c.mp4
Format : MPEG-4
Format profile : Base Media
Codec ID : isom (isom/iso2/avc1/mp41)
File size : 811 MiB
Duration : 23 min 3 s
Overall bit rate : 4 920 kb/s
Writing application : Lavf56.34.100

Video
ID : 1
Format : AVC
Format/Info : Advanced Video Codec
Format profile : High@L4
Format settings : CABAC / 2 Ref Frames
Format settings, CABAC : Yes
Format settings, RefFrames : 2 frames
Codec ID : avc1
Codec ID/Info : Advanced Video Coding
Duration : 23 min 3 s
Bit rate : 4 790 kb/s
Nominal bit rate : 6 000 kb/s
Width : 1 920 pixels
Height : 1 080 pixels
Display aspect ratio : 16:9
Frame rate mode : Variable
Frame rate : 23.976 (23976/1000) FPS
Minimum frame rate : 5.994 FPS
Maximum frame rate : 30.000 FPS
Original frame rate : 30.000 FPS
Color space : YUV
Chroma subsampling : 4:2:0
Bit depth : 8 bits
Scan type : Progressive
Bits/(Pixel*Frame) : 0.096
Stream size : 790 MiB (97%)
Writing library : x264 core 115 r1995M 5a37283
Encoding settings : cabac=1 / ref=2 / deblock=1:0:0 / analyse=0x3:0x113 / me=hex / subme=2 / psy=1 / psy_rd=1.00:0.00 / mixed_ref=0 / me_range=16 / chroma_me=1 / trellis=0 / 8x8dct=1 / cqm=0 / deadzone=21,11 / fast_pskip=1 / chroma_qp_offset=0 / threads=4 / sliced_threads=0 / nr=250 / decimate=1 / interlaced=0 / bluray_compat=0 / constrained_intra=0 / bframes=0 / weightp=1 / keyint=250 / keyint_min=25 / scenecut=40 / intra_refresh=0 / rc_lookahead=10 / rc=2pass / mbtree=1 / bitrate=6000 / ratetol=1.0 / qcomp=0.60 / qpmin=5 / qpmax=69 / qpstep=4 / cplxblur=20.0 / qblur=0.5 / ip_ratio=1.40 / aq=1:1.00

Audio
ID : 2
Format : AAC
Format/Info : Advanced Audio Codec
Format profile : HE-AAC / LC
Format settings : Implicit
Codec ID : mp4a-40-2
Duration : 23 min 3 s
Bit rate mode : Constant
Bit rate : 127 kb/s
Channel(s) : 2 channels
Channel positions : Front: L R
Sampling rate : 48.0 kHz / 24.0 kHz
Frame rate : 23.438 FPS (1024 SPF)
Compression mode : Lossy
Stream size : 20.9 MiB (3%)
Default : Yes
Alternate group : 1





The Middle S02E12


The Middle S02E12


The Middle S02E12


The Middle S02E12


The Middle S02E12

All episodes